Thriller

No Way Out (1987) [Widescreen DVDrip MULTISUBS]

  • Download 5x Faster
  • Download torrent
  • Direct Download
  • Rate this torrent +  |  -
No Way Out (1987) [Widescreen DVDrip MULTISUBS]

Anonymous and Free Direct Download 300GB+


Torrent info

Name:No Way Out (1987) [Widescreen DVDrip MULTISUBS]

Total Size: 703.55 MB

Magnet: Magnet Link

Seeds: 0

Leechers: 0

Stream: Watch Online @ Movie4u

Last Updated: 2016-03-11 19:15:19 (Update Now)

Torrent added: 2009-08-29 23:17:55



VPN For Torrents

Torrent Files List


Info about this release.txt (Size: 703.55 MB) (Files: 15)

 Info about this release.txt

4.80 KB

 No Way Out (1987) Kevin Costner [Widescreen,MULTISUBS]_Kuth.avi

693.33 MB

 Optional subtitles

  Dansk.rar

883.13 KB

  Deutsch.rar

900.51 KB

  English.rar

871.93 KB

  Espanol.rar

881.20 KB

  Francais.rar

830.00 KB

  Italiano.rar

830.99 KB

  Nederlands.rar

856.88 KB

  Norsk.rar

869.34 KB

  Notes on subtitle files.txt

1.69 KB

  Polski.rar

971.48 KB

  Portuges.rar

847.86 KB

  Suomiseksi.rar

918.63 KB

  Svenska.rar

800.81 KB
 

tracker

leech seeds
 

Torrent description

No Way Out (1987)

Optional subtitles in separate idx/sub files:
Danish, Dutch, English, Finnish, German, French, Italian, Norwegian, Polish, Portugese, Spanish, Swedish.

With Kevin Costner, Sean Young and Gene Hackman.

One of my favourite Costner films, where he falls in love with the mistress of his Pentagon boss in the middle of a spy drama.

This is a new and improved rip of the torrent I uploaded in February, 2008. Since then, my ripping procedures have improved so much that I can offer much better quality in a smaller filesize, and lots of subtitles. The old torrent has been so popular that I thought it deserves an improved replacement. The old rip had a width of only 560 pixels, and the filesize was 800 MiB.

Facts for this new rip:
DVDrip Xvid 2-pass, Widescreen 720x368 pixels, very good stereo AC3.
Burn tested, runs well in both my standalone DivX players.

Format/Info : Audio Video Interleave
File size : 693 MiB
Duration : 1h 49mn
Overal bit rate : 886 Kbps

Video
Format : MPEG-4 Visual
Format profile : Streaming [email protected]
Format settings, BVOP : Yes
Format settings, QPel : No
Format settings, GMC : No warppoints
Format settings, Matrix : Default
Muxing mode : Packet Bitstream
Codec ID : XVID
Codec ID/Hint : XviD
Duration : 1h 49mn
Bit rate : 748 Kbps
Width : 720 pixels
Height : 368 pixels
Display aspect ratio : 1.957
Frame rate : 25.000 fps
Resolution : 8 bits
Colorimetry : 4:2:0
Scan type : Progressive
Bits/(Pixel*Frame) : 0.113
Stream size : 586 MiB
Writing library : XviD 1.2.0.dev47 (UTC 2006-11-01)

Audio
Format : MPEG Audio
Format version : Version 1
Format profile : Layer 3
Codec ID : 55
Codec ID/Hint : MP3
Duration : 1h 49mn
Bit rate mode : Constant
Bit rate : 128 Kbps
Minimum bit rate : 128 Kbps
Channel(s) : 2 channels
Sampling rate : 48.0 KHz
Resolution : 16 bits
Stream size : 100 MiB
Writing library : LAME3.97
Encoding settings : CBR

Source: PAL retail 6.5 GiB (note that PAL/NTSC will give no problems for avi files)

Thanks to Kuthumi!

related torrents

Torrent name

health leech seeds Size

No Way Out (1987) avi

0 0 702.35 MB 0
 


comments (0)

Main Menu