Rock

Deep Purple In Rock (Anniversary Edition) [Eac Flac Cue] (by Rock City)[colombo bt org]

  • Download 5x Faster
  • Download torrent
  • Direct Download
  • Rate this torrent +  |  -

Torrent info

Name:Deep Purple In Rock (Anniversary Edition) [Eac Flac Cue] (by Rock City)[colombo bt org]

Total Size: 491.26 MB

Magnet: Magnet Link

Seeds: 0

Leechers: 0

Stream: Watch Online @ Movie4u

Last Updated: 2016-04-20 11:22:19 (Update Now)

Torrent added: 2009-08-29 23:15:34




Torrent Files List


01 Speed King.flac (Size: 491.26 MB) (Files: 29)

 01 Speed King.flac

35.29 MB

 02 Bloodsucker.flac

26.03 MB

 03 Child In Time.flac

62.08 MB

 04 Flight Of The Rat.flac

52.68 MB

 05 Into The Fire.flac

23.43 MB

 06 Living Wreck.flac

27.55 MB

 07 Hard Lovin' Man.flac

41.80 MB

 08 Black Night (Original Single Version).flac

19.66 MB

 09 Studio Chat (1).flac

2.57 MB

 10 Speed King (Piano Version).flac

27.70 MB

 11 Studio Chat (2).flac

1.87 MB

 12 Cry Free (Roger Glover Remix).flac

21.05 MB

 13 Studio Chat (3).flac

436.04 KB

 14 Jam Stew (Unreleased Instrumental).flac

16.69 MB

 15 Studio Chat (4).flac

3.87 MB

 16 Flight of the Rat (Roger Glover Remix).flac

53.18 MB

 17 Studio Chat (5).flac

2.76 MB

 18 Speed King (Roger Glover Remix).flac

37.09 MB

 19 Studio Chat (6).flac

1.69 MB

 20 Black Night (Unedited Roger Glover Remix).flac

32.05 MB

 Deep Purple - In Rock Anniversary Edition.log

8.57 KB

 Deep Purple - In Rock Anniversary Edition.m3u

1.54 KB

 Deep Purple - In Rock.ffp

1.35 KB

 Deep_Purple_-_In_Rock_(Anniversary_Edition)_-_Back.jpg

493.79 KB

 Deep_Purple_-_In_Rock_(Anniversary_Edition)_-_CD.jpg

511.65 KB

 Deep_Purple_-_In_Rock_(Anniversary_Edition)_-_Front.jpg

183.04 KB

 Deep_Purple_-_In_Rock_(Anniversary_Edition)_-_Inside.jpg

123.62 KB

 In Rock Anniversary Edition.cue

3.36 KB

 Inlay.jpg

497.28 KB
 

tracker

leech seeds
 

Torrent description

Deep Purple   In Rock (Anniversary Edition) [Eac Flac Cue] (by Rock City)[colombo bt org] preview 0

Deep Purple   In Rock (Anniversary Edition) [Eac Flac Cue] (by Rock City)[colombo bt org] preview 1

[size=35pt][color=blue][font=eurostile]DEEP PURPLE[/font][/color][/size]
[size=30pt][color=blue][font=eurostile]IN ROCK - ANNIVERSARY EDITION[/font][/color][/size]

Deep Purple   In Rock (Anniversary Edition) [Eac Flac Cue] (by Rock City)[colombo bt org] preview 2

Deep Purple   In Rock (Anniversary Edition) [Eac Flac Cue] (by Rock City)[colombo bt org] preview 3

Deep Purple   In Rock (Anniversary Edition) [Eac Flac Cue] (by Rock City)[colombo bt org] preview 4

[font=eurostile][size=12pt]Titolo: [color=maroon]In Rock (Anniversary Edition)[/color]
Anno: [color=maroon]1970[/color]
[b]Genere: [color=maroon]Hard Rock[/color]
Edizione: [color=maroon]Rimasterizzata[/color]
Formato: [color=maroon]Flac - Level 8[/color]
Fonte: [color=maroon]Cd originale[/color]
[color=blue]Covers incluse nel Torrent[/color][/size][/font]

[code]Exact Audio Copy V0.99 prebeta 3 from 28. July 2007

EAC extraction logfile from 30. March 2008, 20:10

Deep Purple / In Rock Anniversary Edition

Used drive : PIONEER DVD-RW DVR-111D Adapter: 1 ID: 0

Read mode : Secure
Utilize accurate stream : Yes
Defeat audio cache : Yes
Make use of C2 pointers : No

Read offset correction : 48
Overread into Lead-In and Lead-Out : No
Fill up missing offset samples with silence : Yes
Delete leading and trailing silent blocks : No
Null samples used in CRC calculations : Yes
Used interface : Installed external ASPI interface
Gap handling : Appended to previous track

Used output format : Internal WAV Routines
Sample format : 44.100 Hz; 16 Bit; Stereo


TOC of the extracted CD

Track | Start | Length | Start sector | End sector
---------------------------------------------------------
1 | 0:00.33 | 5:53.32 | 33 | 26539
2 | 5:53.65 | 4:13.00 | 26540 | 45514
3 | 10:06.65 | 10:18.03 | 45515 | 91867
4 | 20:24.68 | 7:55.20 | 91868 | 127512
5 | 28:20.13 | 3:29.15 | 127513 | 143202
6 | 31:49.28 | 4:31.55 | 143203 | 163582
7 | 36:21.08 | 6:39.47 | 163583 | 193554
8 | 43:00.55 | 3:27.60 | 193555 | 209139
9 | 46:28.40 | 0:33.73 | 209140 | 211687
10 | 47:02.38 | 4:15.12 | 211688 | 230824
11 | 51:17.50 | 0:27.15 | 230825 | 232864
12 | 51:44.65 | 3:21.60 | 232865 | 247999
13 | 55:06.50 | 0:05.60 | 248000 | 248434
14 | 55:12.35 | 2:31.40 | 248435 | 259799
15 | 57:44.00 | 0:41.25 | 259800 | 262899
16 | 58:25.25 | 7:55.00 | 262900 | 298524
17 | 66:20.25 | 0:32.18 | 298525 | 300942
18 | 66:52.43 | 5:53.00 | 300943 | 327417
19 | 72:45.43 | 0:24.27 | 327418 | 329244
20 | 73:09.70 | 4:47.18 | 329245 | 350787


Track 1

Filename C:\Documents and Settings\Saura\Desktop\Deep Purple - In Rock\01 Speed King.wav

Pre-gap length 0:00:02.33

Peak level 99.2 %
Track quality 100.0 %
Test CRC D41310DE
Copy CRC D41310DE
Track not present in AccurateRip database
Copy OK

Track 2

Filename C:\Documents and Settings\Saura\Desktop\Deep Purple - In Rock\02 Bloodsucker.wav

Pre-gap length 0:00:02.15

Peak level 100.0 %
Track quality 99.9 %
Test CRC E7F5BEAF
Copy CRC E7F5BEAF
Track not present in AccurateRip database
Copy OK

Track 3

Filename C:\Documents and Settings\Saura\Desktop\Deep Purple - In Rock\03 Child In Time.wav

Pre-gap length 0:00:01.47

Peak level 98.8 %
Track quality 100.0 %
Test CRC 9BEC658D
Copy CRC 9BEC658D
Track not present in AccurateRip database
Copy OK

Track 4

Filename C:\Documents and Settings\Saura\Desktop\Deep Purple - In Rock\04 Flight Of The Rat.wav

Pre-gap length 0:00:01.57

Peak level 99.7 %
Track quality 100.0 %
Test CRC 2F3470E7
Copy CRC 2F3470E7
Track not present in AccurateRip database
Copy OK

Track 5

Filename C:\Documents and Settings\Saura\Desktop\Deep Purple - In Rock\05 Into The Fire.wav

Pre-gap length 0:00:02.35

Peak level 100.0 %
Track quality 99.9 %
Test CRC 8AC65163
Copy CRC 8AC65163
Track not present in AccurateRip database
Copy OK

Track 6

Filename C:\Documents and Settings\Saura\Desktop\Deep Purple - In Rock\06 Living Wreck.wav

Peak level 100.0 %
Track quality 100.0 %
Test CRC 2C283E79
Copy CRC 2C283E79
Track not present in AccurateRip database
Copy OK

Track 7

Filename C:\Documents and Settings\Saura\Desktop\Deep Purple - In Rock\07 Hard Lovin' Man.wav

Pre-gap length 0:00:03.18

Peak level 100.0 %
Track quality 100.0 %
Test CRC 4F4525D2
Copy CRC 4F4525D2
Track not present in AccurateRip database
Copy OK

Track 8

Filename C:\Documents and Settings\Saura\Desktop\Deep Purple - In Rock\08 Black Night (Original Single Version).wav

Pre-gap length 0:00:01.40

Peak level 98.9 %
Track quality 100.0 %
Test CRC 23CF2423
Copy CRC 23CF2423
Track not present in AccurateRip database
Copy OK

Track 9

Filename C:\Documents and Settings\Saura\Desktop\Deep Purple - In Rock\09 Studio Chat (1).wav

Pre-gap length 0:00:01.02

Peak level 72.7 %
Track quality 100.0 %
Test CRC 800E6C7E
Copy CRC 800E6C7E
Track not present in AccurateRip database
Copy OK

Track 10

Filename C:\Documents and Settings\Saura\Desktop\Deep Purple - In Rock\10 Speed King (Piano Version).wav

Peak level 100.0 %
Track quality 100.0 %
Test CRC 680302C2
Copy CRC 680302C2
Track not present in AccurateRip database
Copy OK

Track 11

Filename C:\Documents and Settings\Saura\Desktop\Deep Purple - In Rock\11 Studio Chat (2).wav

Pre-gap length 0:00:00.28

Peak level 98.7 %
Track quality 100.0 %
Test CRC 402C88B1
Copy CRC 402C88B1
Track not present in AccurateRip database
Copy OK

Track 12

Filename C:\Documents and Settings\Saura\Desktop\Deep Purple - In Rock\12 Cry Free (Roger Glover Remix).wav

Pre-gap length 0:00:00.63

Peak level 99.2 %
Track quality 100.0 %
Test CRC 28330390
Copy CRC 28330390
Track not present in AccurateRip database
Copy OK

Track 13

Filename C:\Documents and Settings\Saura\Desktop\Deep Purple - In Rock\13 Studio Chat (3).wav

Pre-gap length 0:00:00.30

Peak level 50.9 %
Track quality 100.0 %
Test CRC 77BC65B1
Copy CRC 77BC65B1
Track not present in AccurateRip database
Copy OK

Track 14

Filename C:\Documents and Settings\Saura\Desktop\Deep Purple - In Rock\14 Jam Stew (Unreleased Instrumental).wav

Peak level 100.0 %
Track quality 100.0 %
Test CRC 635B0978
Copy CRC 635B0978
Track not present in AccurateRip database
Copy OK

Track 15

Filename C:\Documents and Settings\Saura\Desktop\Deep Purple - In Rock\15 Studio Chat (4).wav

Pre-gap length 0:00:00.67

Peak level 98.8 %
Track quality 100.0 %
Test CRC 6E6092BE
Copy CRC 6E6092BE
Track not present in AccurateRip database
Copy OK

Track 16

Filename C:\Documents and Settings\Saura\Desktop\Deep Purple - In Rock\16 Flight of the Rat (Roger Glover Remix).wav

Pre-gap length 0:00:00.03

Peak level 100.0 %
Track quality 100.0 %
Test CRC BD49D92B
Copy CRC BD49D92B
Track not present in AccurateRip database
Copy OK

Track 17

Filename C:\Documents and Settings\Saura\Desktop\Deep Purple - In Rock\17 Studio Chat (5).wav

Pre-gap length 0:00:01.22

Peak level 98.8 %
Track quality 100.0 %
Test CRC 63CA2EA7
Copy CRC 63CA2EA7
Track not present in AccurateRip database
Copy OK

Track 18

Filename C:\Documents and Settings\Saura\Desktop\Deep Purple - In Rock\18 Speed King (Roger Glover Remix).wav

Peak level 98.9 %
Track quality 99.9 %
Test CRC AACD3EC8
Copy CRC AACD3EC8
Track not present in AccurateRip database
Copy OK

Track 19

Filename C:\Documents and Settings\Saura\Desktop\Deep Purple - In Rock\19 Studio Chat (6).wav

Pre-gap length 0:00:00.33

Peak level 83.3 %
Track quality 100.0 %
Test CRC EF0798E4
Copy CRC EF0798E4
Track not present in AccurateRip database
Copy OK

Track 20

Filename C:\Documents and Settings\Saura\Desktop\Deep Purple - In Rock\20 Black Night (Unedited Roger Glover Remix).wav

Peak level 100.0 %
Track quality 99.9 %
Test CRC DD21AA86
Copy CRC DD21AA86
Cannot be verified as accurate (confidence 1) [E0440B1E], AccurateRip returned [759AB291]
Copy OK


1 track(s) could not be verified as accurate
19 track(s) not present in the AccurateRip database

No tracks could be verified as accurate
You may have a different pressing from the one(s) in the database

No errors occurred

End of status report
[/code]

Deep Purple   In Rock (Anniversary Edition) [Eac Flac Cue] (by Rock City)[colombo bt org] preview 5

Deep Purple   In Rock (Anniversary Edition) [Eac Flac Cue] (by Rock City)[colombo bt org] preview 6

[font=eurostile][size=12pt][color=black]01.[/color] Speed King
[color=black]02.[/color] Bloodsucker
[color=black]03.[/color] Child In Time
[color=black]04.[/color] Flight Of The Rat
[color=black]05.[/color] Into The Fire
[color=black]06.[/color] Living Wreck
[color=black]07.[/color] Hard Lovin' Man
[color=black]08.[/color] Black Night (original single version)
[color=black]09.[/color] Studio chat (1)
[color=black]10.[/color] Speed King (piano version)
[color=black]11.[/color] Studio chat (2)
[color=black]12.[/color] Cry Free (Roger Glover remix)
[color=black]13.[/color] Studio chat (3)
[color=black]14.[/color] Jam Stew (unreleased instrumental)
[color=black]15.[/color] Studio chat (4)
[color=black]16.[/color] Flight Of The Rat (Roger Glover remix)
[color=black]17.[/color] Studio chat (5)
[color=black]18.[/color] Speed King (Roger Glover remix)
[color=black]19.[/color] Studio chat (6)
[color=black]20.[/color] Black Night (Unedited Roger Glover remix)
[/size][/font]

Deep Purple   In Rock (Anniversary Edition) [Eac Flac Cue] (by Rock City)[colombo bt org] preview 7

Deep Purple   In Rock (Anniversary Edition) [Eac Flac Cue] (by Rock City)[colombo bt org] preview 8

[font=eurostile][size=12pt]Il disco che tutti sicuramente hanno visto in giro, quello con le facce dei Purple scolpite nella roccia, si apre con uno tra gli assoli di chitarra più devastanti della storia del rock, in un minuto di tripudio blackmoriano all'insegna del granito per poi passare al lento solo di organo di Jon Lord; tutto per introdurre Speed King, capolavoro dei Deep Purple e massiccio muro sonoro che ha fatto scuola. Si passa poi a Bloodsucker, canzone a mio avviso sottovalutata e dalle indubbie qualità tecniche; la successiva è Child in Time; nonostante le accuse di plagio (la canzone assomiglia a "Bombay Calling" degli It's a Beautiful Day, fatto peraltro mai negato dai Deep anche se fra le due canzoni c'è un abisso se consideriamo la canzonetta originale e il capolavoro dei Purple) questa canzone è un altra perla del disco, forse la più bella: il lento iniziale si velocizza con il passare dei minuti, si arriva al duello fra l'Hammond di Lord e la Stratocaster di Blackmore che si intrecciano, si scambiano e corrono veloci verso l'apoteosi del disco dal punto di vista qualitativo, supportati dal basso di Glover, dalla batteria di Paice (insieme a John Bonham il miglior batterista della decade) e da un formidabile Ian Gillan, all'epoca neo-acquisto della band che si eleva sopra tutto e tutti con la migliore prestazione vocale della storia, al limite delle capacità della voce maschile, aiutata (come lui stesso ha ironizzato) dall'uso di pantaloni estremamente stretti... Già questa prima parte è sufficiente a dare un 100 al disco ma ecco che rotolano imponenti altri quattro capolavori, Flight Of The Rat e Into The Fire con i loro riff potentissimi e l'altissimi apporti che tutti i componenti della band forniscono; Flight Of The Rat punta più ad essere scorrevole, in un moto perpetuo di improvvisazioni e pennellate magistrali della chitarra mentre Into The Fire è più metodica e cadente ma allo stesso tempo massiccia, basti notare la voce, a tratti lenta e bassa per poi sfiorare lo screaming; curioso il duetto fra la chitarra e tutto il resto dell'accompagnamento alla fine dell'assolo. Si passa infine a Living Wreck che si apre con un'ottimo drumming di Paice e continua martellando, incisiva e tagliente per quasi quattro minuti e mezzo. Infine, a conclusione di tutto la fantastica Hard Lovin' Man potente, decisa, superlativa con il "miglior assolo che Richie abbia mai eseguito" come ha detto Roger Glover.
Se poi vi comprate il disco 25 Anniversario vi beccate anche la famosissima Black Night e alcuni dietro le quinte, un po' dissacranti ma in ogni caso molto buoni.

[color=teal][font=eurostile][size=12pt]Recensione a cura di TrueMetal.it[/size][/font][/color]

[font=eurostile][color=green][size=12pt]Formazione[/size][/color][/font]

[font=eurostile][size=12pt][color=blue]Ian Gillian:[/color] [color=black]Vocals[/color][/size][/font]
[font=eurostile][size=12pt][color=blue]Ritchie Blackmore:[/color] [color=black]Guitars[/color][/size][/font]
[font=eurostile][size=12pt][color=blue]Jon Lord:[/color] [color=black]Keiboards[/color][/size][/font]
[font=eurostile][size=12pt][color=blue]Roger Glover:[/color] [color=black]Bass[/color][/size][/font]
[font=eurostile][size=12pt][color=blue]Ian Paice:[/color] [color=black]Drums[/color][/size][/font]

Deep Purple   In Rock (Anniversary Edition) [Eac Flac Cue] (by Rock City)[colombo bt org] preview 9

related torrents

Torrent name

health leech seeds Size
 


comments (0)

Main Menu