Rock

Deep Purple In Concert (1970 72) [flac+cue]tnt village scambioetico

  • Download 5x Faster
  • Download torrent
  • Direct Download
  • Rate this torrent +  |  -

Torrent info

Name:Deep Purple In Concert (1970 72) [flac+cue]tnt village scambioetico

Total Size: 779.99 MB

Magnet: Magnet Link

Seeds: 0

Leechers: 0

Stream: Watch Online @ Movie4u

Last Updated: 2014-02-18 00:31:38 (Update Now)

Torrent added: 2009-08-29 23:15:28




Torrent Files List


cd 1 (Size: 779.99 MB) (Files: 15)

 cd 1

  Deep Purple - In Concert - CD1.cue

0.53 KB

  Deep Purple - In Concert - CD1.flac

315.17 MB

  In Concert - CD1.log

1.99 KB

 cd 2

  Deep Purple - In Concert - CD2.cue

0.91 KB

  Deep Purple - In Concert - CD2.flac

461.66 MB

  In Concert - CD2.log

2.37 KB

 cover

  Deep Purple - Deep Purple In Concert - Back.jpg

332.31 KB

  Deep Purple - Deep Purple In Concert - CD (1-4).jpg

316.62 KB

  Deep Purple - Deep Purple In Concert - CD (2-4).jpg

532.87 KB

  Deep Purple - Deep Purple In Concert - CD (3-4).jpg

502.09 KB

  Deep Purple - Deep Purple In Concert - CD (4-4).jpg

348.97 KB

  Deep Purple - Deep Purple In Concert - Front.jpg

270.59 KB

  Deep Purple - Deep Purple In Concert - Inlay.jpg

332.19 KB

  Deep Purple - Deep Purple In Concert - Inside.jpg

533.96 KB

  Deep Purple in Concert 1970-1972 .jpg

62.69 KB
 

Announce URL:

Torrent description

[color=green]:::->Cover<-:::[/color]

Deep Purple   In Concert (1970 72) [flac+cue]tnt village scambioetico preview 0Deep Purple   In Concert (1970 72) [flac+cue]tnt village scambioetico preview 1
[color=green]:::->Dati Album<-:::[/color]


Autore:Deep Purple
Titolo:In Concert
Anno:1970 -72 publidhed in 1980
Genere: Rock
Etichetta:spitfire
fonte cd /originale /cdda
Cover : Incluse

[color=green]:::->Tracklist<-:::[/color]

CD1 (1970)

1. Speed King (7:22)
2. Child In Time (11:06)
3. Wring That Neck (18:59)
4. Mandrake Root (17:38)

CD2 (1972)

1. Highway Star (8:32)
2. Strange Kind Of Woman (9:17)
3. Maybe I\\\'m A Leo (6:17)
4. Neve Before (4:34)
5. Lazy (10:22)
6. Space Trucki\\\' (21:46)
7. Smoke On The Water (7:09)
8. Lucille (7:20)

[color=green]:::->Recensione<-:::[/color]

I Deep Purple sono un gruppo rock britannico nato nel 1968, fra i più importanti ed influenti gruppi rock degli anni settanta. Insieme a gruppi come Led Zeppelin e Black Sabbath, sono considerati i pionieri dell\'hard rock e dell\'heavy metal, come del moderno hard rock[10]. Inoltre i Deep Purple sono definiti, da una parte dei critici tra i primi gruppi heavy metal della storia[11], anche se loro hanno sempre rifiutato di etichettarsi come tali.[12]

Ai Deep Purple va ricondotta l\'unione di approccio e sonorità neoclassiche al tempo e al ritmo tipici del blues e del rock and roll. Il suono della band comprende anche elementi pop e progressive rock [10].

Hanno venduto più di 100 milioni di copie nel mondo [13][14][15][16] e sono stati presenti sul Guinness dei primati come la band più rumorosa del mondo [10][17][18].

A differenza di molti gruppi coetanei, nati dall\'incontro

Nel maggio del 1965 nasce una formazione con il nome di \"Episode Six\" che comprendeva Ian Gillan alla voce, Graham Dimmock e Tony Lander alla chitarra, Roger Glover al basso, Sheila Dimmock alle tastiere e Harvey Shields alla batteria...

Due anni più tardi, nacque un\'altra band, centrata su un trio di cantanti, i The Flowerpot Men and their Garden (inizialmente nota col nome \"The Ivy League\"). Il nome era tratto dallo spettacolo per bambini The Flowerpot Men, ma si dice che esso sia un ovvio riferimento ai concetti del flower power e della cannabis (pot in inglese). La canzone di maggior successo del gruppo fu Let\'s Go To San Francisco (alcuni sostengono che si trattasse di una parodia del brano If You\'re Going to San Francisco di Scott McKenzie, ma il gruppo negò sempre la validità di questa voce). I membri del gruppo erano Tony Burrows, Neil Landon, Robin Shaw e Pete Nelson alla voce, Ged Stone alla chitarra, Nick Simper al basso, Jon Lord all\'organo e Carol Little alla batteria.

Nel Febbraio del 1968 dopo un incontro avvenuto tra Lord e Ritchie Blackmore, prese forma il progetto per un nuovo gruppo, i Roundabout, che comprendeva Blackmore alla chitarra, Lord all\'organo Hammond, Chris Curtis alla voce, Bobby Woodman alla batteria e Nick Simper al basso.

Nel Marzo del 1968 Blackmore, Lord e Simper lasciarono da parte l\'idea di chiamare il gruppo Roundabout, ma lo mantennero momentaneamente perché, se la band non avesse avuto successo, avrebbero potuto ricominciare da capo con un nuovo nome e dei Roundabout non si sarebbe ricordato mai nessuno. Quindi \"Roundabout\" fu una mossa puramente strategica. Così si formò una nuova band con il cantante Rod Evans e il batterista Ian Paice. Dovendo scegliere il nome della band, decisero per un nome composto da due parole (come andava di moda all\'epoca): Blackmore propose \"Deep Purple\" pensando all\'omonima canzone di Nino Tempo e April Stevens, brano preferito di sua nonna.

Nell\'ottobre del 1968 il gruppo ebbe un buon successo negli Stati Uniti con il singolo Hush, cover di un brano di Joe South, e con l\'album di debutto, Shades of Deep Purple. Seguirono, nel 1969, due album: The Book of Taliesyn e Deep Purple; quest\'ultimo comprendeva alcuni brani incisi con un\'orchestra sinfonica.

Dopo questi primi tre album e un lungo tour negli Stati Uniti, l\'arrivo di Ian Gillan alla voce (in sostituzione di Evans) e di Roger Glover al basso (al posto di Simper) diede luogo alla \"formazione classica\" dei Deep Purple: il \"Mark II\". Il primo lavoro di questa nuova formazione fu l\'album Concerto for Group and Orchestra, un movimento in tre parti composto da Lord e inciso con la Royal Philharmonic Orchestra diretta da Malcolm Arnold. Nell\'album era presente un brano che fa presagire il futuro stile della band: Wring That Neck, con un miscuglio di Rock \'n Roll e una sorta di Jazz. Era un brano unicamente musicale con assoli di chitarra e organo e un finale di Blackmore in stile Country.

tratto da wikipedia

[color=green]:::->Dati Tecnici<-:::[/color]

[color=red] Formato : Flac [/color]
Programma usato [Eac]

[CODE]
Exact Audio Copy V0.99 prebeta 3 from 28. July 2007

EAC extraction logfile from 4. June 2008, 8:53

Deep Purple / In Concert - CD1

Used drive : _NEC DVD_RW ND-3550A Adapter: 5 ID: 0

Read mode : Secure
Utilize accurate stream : Yes
Defeat audio cache : Yes
Make use of C2 pointers : No

Read offset correction : 48
Overread into Lead-In and Lead-Out : No
Fill up missing offset samples with silence : Yes
Delete leading and trailing silent blocks : No
Null samples used in CRC calculations : No
Used interface : Installed external ASPI interface

Used output format : User Defined Encoder
Selected bitrate : 768 kBit/s
Quality : High
Add ID3 tag : No
Command line compressor : C:\\Programmi\\Exact Audio Copy\\FLAC\\FLAC.EXE
Additional command line options : -6 -V -T \"ARTIST=%a\" -T \"TITLE=%t\" -T \"ALBUM=%g\" -T \"DATE=%y\" -T \"TRACKNUMBER=%n\" -T \"GENRE=%m\" -T \"COMMENT=%e\" %s -o %d


TOC of the extracted CD

Track | Start | Length | Start sector | End sector
---------------------------------------------------------
1 | 0:00.00 | 7:22.37 | 0 | 33186
2 | 7:22.37 | 11:06.70 | 33187 | 83206
3 | 18:29.32 | 18:59.63 | 83207 | 168694
4 | 37:29.20 | 17:38.04 | 168695 | 248048


Range status and errors

Selected range

Filename D:\\Documents and Settings\\salvo.SN116508160310\\Documenti\\Deep Purple - In Concert - CD1.wav

Peak level 100.0 %
Range quality 100.0 %
Test CRC 3C375ABA
Copy CRC 3C375ABA
Copy OK

No errors occurred


AccurateRip summary

Track 1 not present in database
Track 2 not present in database
Track 3 not present in database
Track 4 not present in database

None of the tracks are present in the AccurateRip database

End of status report

-----------------------------------------------------------------------
Exact Audio Copy V0.99 prebeta 3 from 28. July 2007

EAC extraction logfile from 4. June 2008, 9:54

Deep Purple / In Concert - CD2

Used drive : _NEC DVD_RW ND-3550A Adapter: 5 ID: 0

Read mode : Secure
Utilize accurate stream : Yes
Defeat audio cache : Yes
Make use of C2 pointers : No

Read offset correction : 48
Overread into Lead-In and Lead-Out : No
Fill up missing offset samples with silence : Yes
Delete leading and trailing silent blocks : No
Null samples used in CRC calculations : No
Used interface : Installed external ASPI interface

Used output format : User Defined Encoder
Selected bitrate : 768 kBit/s
Quality : High
Add ID3 tag : No
Command line compressor : C:\\Programmi\\Exact Audio Copy\\FLAC\\FLAC.EXE
Additional command line options : -6 -V -T \"ARTIST=%a\" -T \"TITLE=%t\" -T \"ALBUM=%g\" -T \"DATE=%y\" -T \"TRACKNUMBER=%n\" -T \"GENRE=%m\" -T \"COMMENT=%e\" %s -o %d


TOC of the extracted CD

Track | Start | Length | Start sector | End sector
---------------------------------------------------------
1 | 0:00.00 | 8:32.17 | 0 | 38416
2 | 8:32.17 | 9:17.35 | 38417 | 80226
3 | 17:49.52 | 6:17.65 | 80227 | 108566
4 | 24:07.42 | 4:34.50 | 108567 | 129166
5 | 28:42.17 | 10:22.03 | 129167 | 175819
6 | 39:04.20 | 21:46.20 | 175820 | 273789
7 | 60:50.40 | 7:09.00 | 273790 | 305964
8 | 67:59.40 | 7:20.69 | 305965 | 339033


Range status and errors

Selected range

Filename D:\\Documents and Settings\\salvo.SN116508160310\\Documenti\\Deep Purple - In Concert - CD2.wav

Peak level 98.6 %
Range quality 100.0 %
Test CRC 1C6135C5
Copy CRC 1C6135C5
Copy OK

No errors occurred


AccurateRip summary

Track 1 not present in database
Track 2 not present in database
Track 3 not present in database
Track 4 not present in database
Track 5 not present in database
Track 6 not present in database
Track 7 not present in database
Track 8 not present in database

None of the tracks are present in the AccurateRip database

End of status report


[/CODE]

by ramasutra

related torrents

Torrent name

health leech seeds Size
 


comments (0)

Main Menu