Thriller

Nick Of Time DIVX La Vela avi

  • Download 5x Faster
  • Download torrent
  • Direct Download
  • Rate this torrent +  |  -
Nick Of Time DIVX La Vela avi

Free and Direct Download with Usenet.nl 300GB+ free


Torrent info

Name:Nick Of Time DIVX La Vela avi

Total Size: 1.06 GB

Magnet: Magnet Link

Seeds: 0

Leechers: 0

Stream: Watch Online @ Movie4u

Last Updated: 2012-02-12 06:33:53 (Update Now)

Torrent added: 2009-08-29 23:13:06





Torrent Files List


Media.nfo (Size: 1.06 GB) (Files: 5)

 Media.nfo

2.18 KB

 Nick of Time.jpg

27.45 KB

 Nick.Of.Time.DIVX.La.Vela.avi

1.06 GB

 Nick_Of_Time_R1-front.jpg

470.16 KB

 Thank You Info.txt

8.39 KB
 

Announce URL:

Torrent description

Plot:

Gene Watson is a public accountant who arrives on a train at Union Station in Los Angeles, accompanied by his 6-year-old daughter Lynn. Because of his ordinary looks, he is approached by a pair of sinister people named Smith and Jones. Pretending to be cops, Smith and Jones kidnap Lynn and confront Gene with a simple choice -- kill California governor Eleanor Grant in 90 minutes or less, or Lynn will die. Watson is given a gun, six bullets, and a name tag, and he is told to go to the Westin Bonaventure Hotel and kill Eleanor, who is giving an afternoon speech. While Jones is watching Lynn in a van, Smith watches Watson in order to prevent Watson from alerting the authorities. Watson must quickly find some way to get himself and Lynn out of this seemingly impossible situation.



12:25 13-7-2009

General:

Complete name : Nick.Of.Time.DIVX.La.Vela.avi

Imdb : http://www.imdb.com/title/tt0113972/
Language : English
Subtitles : N/A
Format : AVI
Format/Info : Audio Video Interleave
Format profile : OpenDML
File size : 1.06 GiB
Duration : 3h 47mn
Overall bit rate : 665 Kbps
Writing application : Lavf51.12.1

Video
Format : MPEG-4 Visual
Format profile : [email protected]
Format settings, BVOP : No
Format settings, QPel : No
Format settings, GMC : No warppoints
Format settings, Matrix : Default
Codec ID : DX50
Codec ID/Hint : DivX 5
Duration : 3h 47mn
Bit rate : 563 Kbps
Width : 720 pixels
Height : 576 pixels
Display aspect ratio : 5/4
Frame rate : 25.000 fps
Standard : PAL
Resolution : 24 bits
Colorimetry : 4:2:0
Scan type : Progressive
Bits/(Pixel*Frame) : 0.054
Stream size : 915 MiB (85%)
Writing library : Lavc51.40.4

Audio
Format : MPEG Audio
Format version : Version 1
Format profile : Layer 3
Codec ID : 55
Codec ID/Hint : MP3
Duration : 1h 25mn
Bit rate mode : Constant
Bit rate : 256 Kbps
Channel(s) : 2 channels
Sampling rate : 48.0 KHz
Resolution : 16 bits
Stream size : 156 MiB (14%)
Alignment : Aligned on interleaves
Interleave, duration : 24 ms (0.60 video frame)
Interleave, preload duration : 24 ms

related torrents

Torrent name

health leech seeds Size

Nick of Time

45 17 1.18 GB 0
 

comments (0)

Main Menu