Rock

RAINBOW Long Live Rock And Roll (1976 Remaster) [eac flac][colombo bt org]

  • Download 5x Faster
  • Download torrent
  • Direct Download
  • Rate this torrent +  |  -

Torrent info

Name:RAINBOW Long Live Rock And Roll (1976 Remaster) [eac flac][colombo bt org]

Total Size: 260.09 MB

Magnet: Magnet Link

Seeds: 0

Leechers: 0

Stream: Watch Online @ Movie4u

Last Updated: 2016-04-14 01:05:33 (Update Now)

Torrent added: 2009-08-29 23:05:54




Torrent Files List


Copertine - artwork (Size: 260.09 MB) (Files: 20)

 Copertine - artwork

  rainbow 379.jpg

769.62 KB

  rainbow 380.jpg

635.46 KB

  rainbow 381.jpg

1.08 MB

  rainbow 382.jpg

1.87 MB

  rainbow 383.jpg

1.01 MB

  rainbow 384.jpg

0.98 MB

  rainbow 385.jpg

2.20 MB

 Flac

  01 Long Live Rock 'n' Roll.flac

29.77 MB

  02 Lady Of The Lake.flac

24.66 MB

  03 L.A. Connection.flac

31.46 MB

  04 Gates Of Babylon.flac

43.77 MB

  05 Kill The King.flac

31.65 MB

  06 The Shed (Subtle).flac

31.66 MB

  07 Sensitive To Light.flac

21.53 MB

  08 Rainbow Eyes.flac

37.08 MB

 Long Live Rock 'N' Roll [1999 Remaster].cue

1.36 KB

 RAINBOW - Long Live R'n'R (1978 - Remaster) [Eac Flac].ffp

0.56 KB

 Rainbow - Long Live Rock 'N' Roll [1999 Remaster].log

4.32 KB

 Rainbow - Long Live Rock 'N' Roll [1999 Remaster].m3u

0.53 KB

 Rainbow long live rnr.txt

0.54 KB
 

tracker

leech seeds
 

Torrent description

RAINBOW   Long Live Rock And Roll (1976   Remaster) [eac flac][colombo bt org] preview 0

[color=blue][size=18pt]\"RAINBOW- Long Live Rock And Roll (1978 - Remaster )[Eac Flac]\"[/size][/color]

RAINBOW   Long Live Rock And Roll (1976   Remaster) [eac flac][colombo bt org] preview 1

[color=blue][font=Verdana]TITOLO: RAINBOW - Long Live Rock And Roll
ANNO: 1978
ETICHETTA: Polydor Records / Universal
GENERE: Hard Rock Inglese
FORMATO: Flac Level 8
COPERTINE: sì (scansioni originali)
FONTE: CD originale
EDIZIONE: Polydor Records / Universal - Remaster - Made In The EU
[/font][/color]

[code]Exact Audio Copy V0.99 prebeta 3 from 28. July 2007

EAC extraction logfile from 9. June 2008, 13:41

Rainbow / Long Live Rock \'N\' Roll [1999 Remaster]

Used drive : PLEXTOR DVDR PX-800A Adapter: 1 ID: 0

Read mode : Secure
Utilize accurate stream : Yes
Defeat audio cache : Yes
Make use of C2 pointers : No

Read offset correction : 48
Overread into Lead-In and Lead-Out : No
Fill up missing offset samples with silence : Yes
Delete leading and trailing silent blocks : No
Null samples used in CRC calculations : No
Used interface : Installed external ASPI interface
Gap handling : Appended to previous track

Used output format : Internal WAV Routines
Sample format : 44.100 Hz; 16 Bit; Stereo


TOC of the extracted CD

Track | Start | Length | Start sector | End sector
---------------------------------------------------------
1 | 0:00.00 | 4:24.72 | 0 | 19871
2 | 4:24.72 | 3:38.40 | 19872 | 36261
3 | 8:03.37 | 5:02.28 | 36262 | 58939
4 | 13:05.65 | 6:51.27 | 58940 | 89791
5 | 19:57.17 | 4:30.38 | 89792 | 110079
6 | 24:27.55 | 4:47.62 | 110080 | 131666
7 | 29:15.42 | 3:07.73 | 131667 | 145764
8 | 32:23.40 | 7:26.60 | 145765 | 179274


Track 1

Filename C:\\Documents and Settings\\Stefano\\Desktop\\RAINBOW - Long Live R\'n\'R (1978 - Remaster) [Eac Flac]\\01 Long Live Rock \'n\' Roll.wav

Pre-gap length 0:00:02.00

Peak level 100.0 %
Track quality 100.0 %
Test CRC B3A5861C
Copy CRC B3A5861C
Accurately ripped (confidence 10) [C8B36D4C]
Copy OK

Track 2

Filename C:\\Documents and Settings\\Stefano\\Desktop\\RAINBOW - Long Live R\'n\'R (1978 - Remaster) [Eac Flac]\\02 Lady Of The Lake.wav

Pre-gap length 0:00:04.62

Peak level 97.9 %
Track quality 100.0 %
Test CRC 1F2EF492
Copy CRC 1F2EF492
Accurately ripped (confidence 10) [E93737D7]
Copy OK

Track 3

Filename C:\\Documents and Settings\\Stefano\\Desktop\\RAINBOW - Long Live R\'n\'R (1978 - Remaster) [Eac Flac]\\03 L.A. Connection.wav

Pre-gap length 0:00:01.40

Peak level 97.8 %
Track quality 100.0 %
Test CRC 44E5944B
Copy CRC 44E5944B
Accurately ripped (confidence 10) [595AE3A5]
Copy OK

Track 4

Filename C:\\Documents and Settings\\Stefano\\Desktop\\RAINBOW - Long Live R\'n\'R (1978 - Remaster) [Eac Flac]\\04 Gates Of Babylon.wav

Pre-gap length 0:00:03.58

Peak level 100.0 %
Track quality 100.0 %
Test CRC A3B53264
Copy CRC A3B53264
Accurately ripped (confidence 10) [7E43E20C]
Copy OK

Track 5

Filename C:\\Documents and Settings\\Stefano\\Desktop\\RAINBOW - Long Live R\'n\'R (1978 - Remaster) [Eac Flac]\\05 Kill The King.wav

Pre-gap length 0:00:03.55

Peak level 100.0 %
Track quality 100.0 %
Test CRC D107EF14
Copy CRC D107EF14
Accurately ripped (confidence 10) [33F675E8]
Copy OK

Track 6

Filename C:\\Documents and Settings\\Stefano\\Desktop\\RAINBOW - Long Live R\'n\'R (1978 - Remaster) [Eac Flac]\\06 The Shed (Subtle).wav

Pre-gap length 0:00:03.00

Peak level 100.0 %
Track quality 100.0 %
Test CRC B2DEB8BD
Copy CRC B2DEB8BD
Accurately ripped (confidence 10) [EF00A485]
Copy OK

Track 7

Filename C:\\Documents and Settings\\Stefano\\Desktop\\RAINBOW - Long Live R\'n\'R (1978 - Remaster) [Eac Flac]\\07 Sensitive To Light.wav

Pre-gap length 0:00:02.12

Peak level 100.0 %
Track quality 99.9 %
Test CRC D211A024
Copy CRC D211A024
Accurately ripped (confidence 10) [95EA4BF5]
Copy OK

Track 8

Filename C:\\Documents and Settings\\Stefano\\Desktop\\RAINBOW - Long Live R\'n\'R (1978 - Remaster) [Eac Flac]\\08 Rainbow Eyes.wav

Pre-gap length 0:00:05.15

Peak level 92.1 %
Track quality 100.0 %
Test CRC 8C9EA52A
Copy CRC 8C9EA52A
Accurately ripped (confidence 10) [4FC9D719]
Copy OK


All tracks accurately ripped

No errors occurred

End of status report
[/code]

RAINBOW   Long Live Rock And Roll (1976   Remaster) [eac flac][colombo bt org] preview 2

[color=blue]01.long live rock and roll
02.lady of the lake
03.L.A.connection
04.gates of babylon
05.kill the king
06.the shed
07.sensitive to light
08.rainbow wyes
[/color]

RAINBOW   Long Live Rock And Roll (1976   Remaster) [eac flac][colombo bt org] preview 3

RAINBOW   Long Live Rock And Roll (1976   Remaster) [eac flac][colombo bt org] preview 4

[font=Verdana]
Nel 1975 Ritchie Blackmore decide di lasciare i Deep Purple perché pensa che
Coverdale e Hughes stiano portando il gruppo verso lidi troppo funky.
Assolda così gli ELF, gruppo che incideva per la Deep Purple Overseas, e li trasforma nella sua nuova band. Gli Elf-Rainbow durano lo spazio di un album, già dal secondo infatti Blackmore sceglie altri musicisti. Ronnie James Dio però rimane e insieme a Blackmore stesso sarà l’anima dei Rainbow per i primi tre indimenticabili album da studio.
LONG LIVE ROCK AND ROLL è il terzo album dei Rainbow, registrato con l’ausilio di Cozy Powell alla batteria.
La canzone che da il titolo all’album e KILL THE KING sono i momenti probabilmente più noti di questo disco, ma anche il resto si difende bene: ottimo hard rock inglese di derivazione neoclassica.
Una menzione particolare per RAINBOW EYES, dolcissimo momento pieno d’incanto.

Il disco è del 1978, sono quindi passati trent’anni, ma ricordo ancora la eccitazione legata a quell’acquisto: ero un ragazzino e dopo una noiosa lezione pomeridiana all’istituto superiore che frequentavo a Modena, mi precipitai nel negozio di dischi più vicino (lo storico DISCO CLUB) e uscii soddisfatto e fiero con il mio primo disco dei Rainbow sottobraccio. La sera, a casa, entrai ancora una volta nel fantastico mondo della musica Rock. Che emozioni, che momenti…è proprio il caso di dirlo: Long Live Rock and Roll.

(note di nonantolaslim giugno 08)
[/font]

RAINBOW   Long Live Rock And Roll (1976   Remaster) [eac flac][colombo bt org] preview 5

related torrents

Torrent name

health leech seeds Size
 


comments (0)

Main Menu