Rock

Raging Slab Raging Slab [Eac Flac Cue] (by Rock City)[colombo bt org]

  • Download 5x Faster
  • Download torrent
  • Direct Download
  • Rate this torrent +  |  -

Torrent info

Name:Raging Slab Raging Slab [Eac Flac Cue] (by Rock City)[colombo bt org]

Total Size: 340.64 MB

Magnet: Magnet Link

Seeds: 0

Leechers: 3

Stream: Watch Online @ Movie4u

Last Updated: 2016-01-31 10:41:26 (Update Now)

Torrent added: 2009-08-29 23:04:06



VPN For Torrents

Torrent Files List


01 Dont dog me.flac (Size: 340.64 MB) (Files: 21)

 01 Dont dog me.flac

29.39 MB

 02 Joy Ride.flac

27.95 MB

 03 Sorry's all i got.flac

21.72 MB

 04 Waiting for the potion.flac

19.73 MB

 05 Get off my jollyes.flac

28.73 MB

 06 Shiny Mama.flac

24.49 MB

 07 Geronimo.flac

34.31 MB

 08 Bent for Silver.flac

22.49 MB

 09 Love comes loose.flac

18.96 MB

 10 Dig a hole.flac

22.74 MB

 11 San Loco.flac

22.23 MB

 12 Working for 'R'.flac

33.24 MB

 13 Dont dog me (live).flac

30.56 MB

 Back.jpg

663.20 KB

 Cd.jpg

254.99 KB

 Front.jpg

1.53 MB

 Inside.jpg

1.68 MB

 Raging Slab - Raging Slab.ffp

0.82 KB

 Raging Slab - Raging Slab.log

5.85 KB

 Raging Slab - Raging Slab.m3u

0.82 KB

 Raging Slab.cue

2.08 KB
 

tracker

leech seeds
 

Torrent description

Raging Slab   Raging Slab [Eac Flac Cue] (by Rock City)[colombo bt org] preview 0

Raging Slab   Raging Slab [Eac Flac Cue] (by Rock City)[colombo bt org] preview 1

[size=24pt][color=blue][font=Verdana]RAGING SLAB[/font][/color][/size]
[size=20pt][color=blue][font=Verdana]RAGING SLAB[/font][/color][/size]

Raging Slab   Raging Slab [Eac Flac Cue] (by Rock City)[colombo bt org] preview 2

Raging Slab   Raging Slab [Eac Flac Cue] (by Rock City)[colombo bt org] preview 3

Raging Slab   Raging Slab [Eac Flac Cue] (by Rock City)[colombo bt org] preview 4

[font=Verdana]Titolo: [color=maroon]Raging Slab[/color][/font]
[font=Verdana]Anno: [color=maroon]2000[/color][/font]
[font=Verdana][b]Genere: [color=maroon]Southern Rock[/color][/font]
[font=Verdana]Edizione: [color=maroon]Originale[/color][/font]
[font=Verdana]Formato: [color=maroon]Flac - Level 8[/color][/font]
[font=Verdana]Fonte: [color=maroon]Cd originale[/color][/font]
[color=blue][font=Verdana]Covers incluse nel Torrent[/font][/color]

[code]Exact Audio Copy V0.99 prebeta 3 from 28. July 2007

EAC extraction logfile from 15. March 2008, 15:34

Raging Slab / Raging Slab

Used drive : PIONEER DVD-RW DVR-111D Adapter: 1 ID: 0

Read mode : Secure
Utilize accurate stream : Yes
Defeat audio cache : Yes
Make use of C2 pointers : No

Read offset correction : 48
Overread into Lead-In and Lead-Out : No
Fill up missing offset samples with silence : Yes
Delete leading and trailing silent blocks : No
Null samples used in CRC calculations : Yes
Used interface : Installed external ASPI interface
Gap handling : Appended to previous track

Used output format : Internal WAV Routines
Sample format : 44.100 Hz; 16 Bit; Stereo


TOC of the extracted CD

Track | Start | Length | Start sector | End sector
---------------------------------------------------------
1 | 0:00.32 | 3:52.25 | 32 | 17456
2 | 3:52.57 | 3:43.10 | 17457 | 34191
3 | 7:35.67 | 2:59.38 | 34192 | 47654
4 | 10:35.30 | 2:46.50 | 47655 | 60154
5 | 13:22.05 | 3:51.32 | 60155 | 77511
6 | 17:13.37 | 3:21.28 | 77512 | 92614
7 | 20:34.65 | 4:55.72 | 92615 | 114811
8 | 25:30.62 | 3:01.13 | 114812 | 128399
9 | 28:32.00 | 3:06.67 | 128400 | 142416
10 | 31:38.67 | 3:07.58 | 142417 | 156499
11 | 34:46.50 | 2:59.70 | 156500 | 169994
12 | 37:46.45 | 4:40.00 | 169995 | 190994
13 | 42:26.45 | 4:17.00 | 190995 | 210269


Track 1

Filename C:\Documents and Settings\Saura\Desktop\Raging Slab - Raging Slab\01 Dont dog me.wav

Pre-gap length 0:00:02.32

Peak level 74.9 %
Track quality 100.0 %
Test CRC CA59F475
Copy CRC CA59F475
Track not present in AccurateRip database
Copy OK

Track 2

Filename C:\Documents and Settings\Saura\Desktop\Raging Slab - Raging Slab\02 Joy Ride.wav

Peak level 100.0 %
Track quality 99.9 %
Test CRC 1AE5A3F4
Copy CRC 1AE5A3F4
Track not present in AccurateRip database
Copy OK

Track 3

Filename C:\Documents and Settings\Saura\Desktop\Raging Slab - Raging Slab\03 Sorry's all i got.wav

Pre-gap length 0:00:00.46

Peak level 100.0 %
Track quality 100.0 %
Test CRC 8E6449DE
Copy CRC 8E6449DE
Track not present in AccurateRip database
Copy OK

Track 4

Filename C:\Documents and Settings\Saura\Desktop\Raging Slab - Raging Slab\04 Waiting for the potion.wav

Pre-gap length 0:00:00.73

Peak level 100.0 %
Track quality 100.0 %
Test CRC 27B9DA7D
Copy CRC 27B9DA7D
Track not present in AccurateRip database
Copy OK

Track 5

Filename C:\Documents and Settings\Saura\Desktop\Raging Slab - Raging Slab\05 Get off my jollyes.wav

Pre-gap length 0:00:00.62

Peak level 100.0 %
Track quality 99.9 %
Test CRC 77935216
Copy CRC 77935216
Track not present in AccurateRip database
Copy OK

Track 6

Filename C:\Documents and Settings\Saura\Desktop\Raging Slab - Raging Slab\06 Shiny Mama.wav

Pre-gap length 0:00:00.25

Peak level 100.0 %
Track quality 100.0 %
Test CRC FDAD9F6F
Copy CRC FDAD9F6F
Track not present in AccurateRip database
Copy OK

Track 7

Filename C:\Documents and Settings\Saura\Desktop\Raging Slab - Raging Slab\07 Geronimo.wav

Pre-gap length 0:00:00.18

Peak level 100.0 %
Track quality 100.0 %
Test CRC 72D583CB
Copy CRC 72D583CB
Track not present in AccurateRip database
Copy OK

Track 8

Filename C:\Documents and Settings\Saura\Desktop\Raging Slab - Raging Slab\08 Bent for Silver.wav

Pre-gap length 0:00:00.54

Peak level 100.0 %
Track quality 100.0 %
Test CRC 1165BD0A
Copy CRC 1165BD0A
Track not present in AccurateRip database
Copy OK

Track 9

Filename C:\Documents and Settings\Saura\Desktop\Raging Slab - Raging Slab\09 Love comes loose.wav

Pre-gap length 0:00:00.69

Peak level 100.0 %
Track quality 100.0 %
Test CRC 48C73680
Copy CRC 48C73680
Track not present in AccurateRip database
Copy OK

Track 10

Filename C:\Documents and Settings\Saura\Desktop\Raging Slab - Raging Slab\10 Dig a hole.wav

Pre-gap length 0:00:00.15

Peak level 100.0 %
Track quality 100.0 %
Test CRC CD55A119
Copy CRC CD55A119
Track not present in AccurateRip database
Copy OK

Track 11

Filename C:\Documents and Settings\Saura\Desktop\Raging Slab - Raging Slab\11 San Loco.wav

Pre-gap length 0:00:00.05

Peak level 100.0 %
Track quality 100.0 %
Test CRC 80A67108
Copy CRC 80A67108
Track not present in AccurateRip database
Copy OK

Track 12

Filename C:\Documents and Settings\Saura\Desktop\Raging Slab - Raging Slab\12 Working for 'R'.wav

Pre-gap length 0:00:00.74

Peak level 100.0 %
Track quality 100.0 %
Test CRC CE18EAD1
Copy CRC CE18EAD1
Track not present in AccurateRip database
Copy OK

Track 13

Filename C:\Documents and Settings\Saura\Desktop\Raging Slab - Raging Slab\13 Dont dog me (live).wav

Pre-gap length 0:00:00.55

Peak level 100.0 %
Track quality 100.0 %
Test CRC F3946F4C
Copy CRC F3946F4C
Track not present in AccurateRip database
Copy OK


None of the tracks are present in the AccurateRip database

No errors occurred

End of status report
[/code]

Raging Slab   Raging Slab [Eac Flac Cue] (by Rock City)[colombo bt org] preview 5

[font=Verdana][color=black]01.[/color] Don't Dog Me
[color=black]02.[/color] Joy Ride
[color=black]03.[/color] Sorry's All I Got
[color=black]04.[/color] Waiting For The Potion
[color=black]05.[/color] Get Off My Jollies
[color=black]06.[/color] Shiny Mama
[color=black]07.[/color] Geronimo
[color=black]08.[/color] Bent For Silver
[color=black]09.[/color] Love Comes Loose
[color=black]10.[/color] Dig A Hole
[color=black]11.[/color] San Loco

[color=navy]Bonus Tracks[/color]

[color=black]12.[/color] Workin' For "R"CA (live)
[color=black]13.[/color] Don't Dog Me (live)
[/font]

Raging Slab   Raging Slab [Eac Flac Cue] (by Rock City)[colombo bt org] preview 6

[font=Verdana][size=10pt]Lo stick in copertina avverte: " Lynyrd Skynyrd meets Metallica". Guardate il look: cappelloni e giacche sfrangiate. Ascoltate il sound: la tradizione dalla grande musica roots americana messa a ferro e fuoco da riff torridi che prosciugheranno l'ennesimo bicchiere di bourbon messoci sul bancone dalla cameriera del locale dove abbiamo parcheggiato il nostro autoarticolato. Cinque minuti di sosta prima di ripartire per consegnare il carico di legname chissà dove in Pennsylvania.
Greg Strzempka non scherza, dopo l'ottimo "Assmaster", serve un altro intruglio spaccabudella: tre quarti di southern rock, uno di metal e una spruzzata di blues texano di infimo ordine. A miscelare il tutto gli dà una mano Elise Steinmann, una leggiadra fanciulla che usa spesso la bottleneck guitar come una ritmica. Gli altri sguatteri del locale sono il bravo chitarrista solista Mark Middleton e la ritmica del duo Morton/Pantella. L'impatto sonoro dell'opener "Don't Dog Me" ci costringe a sedere al tavolino invece di portar fuori la bottiglia di Jack Daniels: il feedback delle chitarre è potente e convincente, Greg come cantante prende di brutto e il suo refrain è doppiato dalla slide di Elise, l'assolo heavy di Middleton fa il resto: il tuo piede destro non smette di battere il ritmo. Canzoni come "Joy Ride", "Get Off My Jollies" e "San Loco" appiccano il sacro fuoco del rock sudista su impalcature di metallo fino a farle diventare roventi. Addirittura il riff sabbatiano di "Shiny Mama" ha bisogno della voce d'eccezione del reduce Ray Gillan dei Badlands per farla diventare un'oscena declinazione boogie. "Bent For Silver" pare ricreare quell'attacco a tre chitarre che tanto ci aveva fatto amare il sound degli scolari del professor Skynyrd con le fughe a catena delle soliste. Il brano più bello in programma è "Geronimo", aperto da fendenti di bottleneck come usa fare Ry Cooder nelle sue colonne sonore per i film di Walter Hill, poi il poderoso riff apre ad una ballata "roots-metal" con il coro che ci assicura di aver visto il fantasma del grande capo apache andarsene a spasso per la Fifth Avenue... e per finire Middleton ci delizia con un assolo che più confederato non si può.
Ma questi omaccioni hanno tra le fila la bella Elise che provvede ad addolcire il suono e lenire la nostra stanchezza per le ore di viaggio che ci attendono: "Love Comes Loose" è una ballata semi acustica che riempie d'armonia la bettola di quart'ordine zittendo i camionisti, i bikers e i vagabondi con il bicchiere sempre vuoto. La splendida tessitura della sua bottleneck guitar sorretta dal dobro ci fa capire che siamo davvero in America e che ci siamo scordati il nostro compare nella cabina dell'autoarticolato cromato ad aspettare quella famosa bottiglia di bourbon.

[color=teal][font=Verdana]Recensione a cura di DeBaser.it[/font][/color]

[font=Verdana][color=green][size=10pt]Formazione[/size][/color][/font]

[font=Verdana][size=10pt][color=blue]Gregory Strzempka:[/color] [color=black]Vocals, Guitar[/color][/size][/font]
[font=Verdana][size=10pt][color=blue]Elyse Steinman:[/color] [color=black]Bottleneck Guitar[/color][/size][/font]
[font=Verdana][size=10pt][color=blue]Alec Morton:[/color] [color=black]Bass Guitar[/color][/size][/font]
[font=Verdana][size=10pt][color=blue]Mark Middletown:[/color] [color=black]Lead Guitar[/color][/size][/font]
[font=Verdana][size=10pt][color=blue]Bob Pantella:[/color] [color=black]Drums[/color][/size][/font]

related torrents

Torrent name

health leech seeds Size
 


comments (0)

Main Menu