Thriller

Mindhunters(2004)Hindi DVDRip XviD ~ Smeet

  • Download 5x Faster
  • Download torrent
  • Direct Download
  • Rate this torrent +  |  -
Mindhunters(2004)Hindi DVDRip XviD ~ Smeet

Anonymous and Free Direct Download 300GB+


Torrent info

Name:Mindhunters(2004)Hindi DVDRip XviD ~ Smeet

Total Size: 699.57 MB

Magnet: Magnet Link

Seeds: 0

Leechers: 2

Stream: Watch Online @ Movie4u

Last Updated: 2015-09-07 07:01:09 (Update Now)

Torrent added: 2009-08-29 22:57:23



VPN For Torrents

Torrent Files List


Mindhunters(2004)Hindi-DVDRip-XviD ~ Smeet.avi (Size: 699.57 MB) (Files: 2)

 Mindhunters(2004)Hindi-DVDRip-XviD ~ Smeet.avi

699.56 MB

 smeet.nfo

7.18 KB
 

tracker

leech seeds
 

Torrent description


################## TM
##^^^^^^^^^^^^^^^^####
############## #^^^^^^^^^^^^^^^^^^^##
###### #### #########^^^^^# #^^^^^#########^^^^^#
###### ####### ###########^^^# #^^^^^^^^^^^^^#^^^^^#
####### ####### ############^^## #^^^^^^^^^^^^^#^^^^^#
################################# ############^^^###^^^^^^^^^^^^^#^^^^^#
############################################^#^^#^^^^^^^^^^^^^^^^#^^^^^#
#####################################^^^^^^^^#^^#########^^^#######^^^^#####
####################################^^^^^^^^^##^^^^^^^^^##^^#^^^^^^^^^^^^^^##
####################################^^^^^^^^^^###^^^^^^^^#^^#^^^^^^^^^^^^^^^##
######################### ##########^^^^^####^^##^^^^^^^^#^^#^^^^^^^^^^^^^^^##
####################################^########^^#^#########^^######^^^^^######
#############################################^^#^#^^^^^^^^^^^^^^^#^^^^^#
##############################################^#^#^^^^^^^^^^^^^^^#^^^^^#
##############################################^#^#^^^^^^^^^^^^^^^#^^^^^#
##################################^^^^^^^^^^#^#^^^^^^^^^^^^^^^#^^^^^#
############################################^^^#^##^^^^^^^^^^^^^^#^^^^^#
##############################################^#^^^###^^^^^^^^^^^#^^^^^#
#################################################^^^^#^^^^^^^^^^^#^^^^^#
###############################################^######^^^^^^^^^^^#^^^^^#
###################### ###### ##############^^^^^^^^^^^########^^^^^#
###################### ###### ##############^^##^^^^^^^# #^^^^^^#
###################### ###### ##################^^^^^^^# #^^^^^^#
############## ############### ######^^# ########
############## ############### ###
#############
MEANS QUALITY

=======================================================
= Mindhunters (2004) =
=======================================================

|##############################################################################|
| |
|GENERAL INFORMATION |
|=================== |
|Format : AVI |
|Format/Info : Audio Video Interleave |
|Format profile : OpenDML |
|File size : 700 MiB |
|Duration : 1h 34mn |
|Overall bit rate : 1 037 Kbps |
|Language : Hindi Source: DVD |
|SUBTITLE : No |
|GENRE : Action | Drama | Horror | Mystery|Thriller |
|IMDB LINK : http://www.imdb.com/title/tt0297284/ |
|IMDB RATING : 6.2/10 |
|RIPPER : SMEET |
|##############################################################################|

|##############################################################################|
| |
|Video |
|Format : MPEG-4 Visual |
|Format settings, Matrix : Custom |
|Codec ID : XVID |
|Codec ID/Hint : XviD |
|Duration : 1h 34mn |
|Width : 608 pixels |
|Height : 496 pixels |
|Display aspect ratio : 1.377 |
|Frame rate : 25.000 fps |
|Resolution : 24 bits |
|Colorimetry : 4:2:0 |
|Scan type : Progressive |
|Bits/(Pixel*Frame) : 0.122 |
|Stream size : 622 MiB (89%) |
|Writing library : XviD 1.2.1 (UTC 2008-12-04) rter. |
|##############################################################################|
|Audio |
|Format : MPEG Audio |
|Format version : Version 1 |
|Format profile : Layer 3 |
|Codec ID : 55 |
|Codec ID/Hint : MP3 |
|Duration : 1h 34mn |
|Bit rate mode : Constant |
|Bit rate : 112 Kbps |
|Channel(s) : 2 channels |
|Sampling rate : 44.1 KHz |
|Resolution : 16 bits |
|Stream size : 75.5 MiB (11%) |
|Alignment : Aligned on interleaves |
|Interleave, duration : 788 ms (19.70 video frames) |
|Interleave, preload duration : 208 ms |
|Title : mind~smeet T81 3_2ch 448Kbps DELAY 0ms0ms |
|Writing library : LAME3.98r |
|Encoding settings : -m j -V 4 -q 2 -lowpass 15.6 -b 112 |
| |
| ALL MY RELEAASES AVAILABLE AT http://thepiratebay.org/user/bonkingph/ |
| http://www.ahashare.com/account-details.php?id=28583 |
|##############################################################################|
www.AhaShare.Com

related torrents

Torrent name

health leech seeds Size
 


comments (0)

Main Menu