Rock

PREMIATA FORNERIA MARCONI Storia di un minuto (1972) (Eac Flac)[colombo bt org]

  • Download 5x Faster
  • Download torrent
  • Direct Download
  • Rate this torrent +  |  -

Torrent info

Name:PREMIATA FORNERIA MARCONI Storia di un minuto (1972) (Eac Flac)[colombo bt org]

Total Size: 201.25 MB

Magnet: Magnet Link

Seeds: 2

Leechers: 0

Stream: Watch Online @ Movie4u

Last Updated: 2015-09-13 20:58:52 (Update Now)

Torrent added: 2009-08-29 22:27:03




Torrent Files List


01 Introduzione.flac (Size: 201.25 MB) (Files: 14)

 01 Introduzione.flac

5.87 MB

 02 Impressioni Di Settembre.flac

34.70 MB

 03 E' Festa.flac

33.25 MB

 04 Dove...Quando...(Parte I).flac

21.54 MB

 05 Dove...Quando...(Parte II).flac

34.94 MB

 06 La Carrozza Di Hans.flac

34.06 MB

 07 Grazie Davvero.flac

33.99 MB

 PFM - cd145.jpg

230.80 KB

 PFM - fronte-retro146.jpg

2.09 MB

 PFM - interno147.jpg

593.09 KB

 PFM - Storia di un minuto.ffp

0.52 KB

 Premiata Forneria Marconi - Storia Di Un Minuto.log

3.58 KB

 Premiata Forneria Marconi - Storia Di Un Minuto.m3u

0.61 KB

 Storia Di Un Minuto.cue

1.28 KB
 

tracker

leech seeds
 

Torrent description

PREMIATA FORNERIA MARCONI   Storia di un minuto   (1972) (Eac Flac)[colombo bt org] preview 0

[color=blue][size=18pt]"PREMIATA FORNERIA MARCONI - Storia di un minuto - 1972"[/size][/color]

PREMIATA FORNERIA MARCONI   Storia di un minuto   (1972) (Eac Flac)[colombo bt org] preview 1

PREMIATA FORNERIA MARCONI   Storia di un minuto   (1972) (Eac Flac)[colombo bt org] preview 2&width=250

[color=blue][font=Verdana]Titolo: PREMIATA FORNERIA MARCONI "Storia di un minuto"
Anno: 1972 (Remaster 2000)
Etichetta: BMG Ricordi
Genere: Rock progressivo
Formato: Flac Level 8
Cover: sì
Fonte: CD originale
[/font][/color]

[code]Exact Audio Copy V0.99 prebeta 3 from 28. July 2007

EAC extraction logfile from 16. March 2008, 10:56

Premiata Forneria Marconi / Storia Di Un Minuto

Used drive : PLEXTOR DVDR PX-800A Adapter: 1 ID: 0

Read mode : Secure
Utilize accurate stream : Yes
Defeat audio cache : Yes
Make use of C2 pointers : No

Read offset correction : 48
Overread into Lead-In and Lead-Out : No
Fill up missing offset samples with silence : Yes
Delete leading and trailing silent blocks : No
Null samples used in CRC calculations : No
Used interface : Installed external ASPI interface
Gap handling : Appended to previous track

Used output format : Internal WAV Routines
Sample format : 44.100 Hz; 16 Bit; Stereo


TOC of the extracted CD

Track | Start | Length | Start sector | End sector
---------------------------------------------------------
1 | 0:00.00 | 1:10.36 | 0 | 5285
2 | 1:10.36 | 5:44.30 | 5286 | 31115
3 | 6:54.66 | 4:52.26 | 31116 | 53041
4 | 11:47.17 | 4:10.50 | 53042 | 71841
5 | 15:57.67 | 6:01.08 | 71842 | 98924
6 | 21:59.00 | 6:46.52 | 98925 | 129426
7 | 28:45.52 | 5:54.17 | 129427 | 155993


Track 1

Filename C:\Documents and Settings\Stefano\Desktop\PFM - Storia di un minuto\01 Introduzione.wav

Pre-gap length 0:00:02.00

Peak level 98.7 %
Track quality 100.0 %
Test CRC F70FDEBD
Copy CRC F70FDEBD
Accurately ripped (confidence 4) [47B1272D]
Copy OK

Track 2

Filename C:\Documents and Settings\Stefano\Desktop\PFM - Storia di un minuto\02 Impressioni Di Settembre.wav

Peak level 100.0 %
Track quality 100.0 %
Test CRC 3230281B
Copy CRC 3230281B
Accurately ripped (confidence 4) [DF3F1EBE]
Copy OK

Track 3

Filename C:\Documents and Settings\Stefano\Desktop\PFM - Storia di un minuto\03 E' Festa.wav

Peak level 99.4 %
Track quality 100.0 %
Test CRC FCCB5576
Copy CRC FCCB5576
Accurately ripped (confidence 4) [5F06BE17]
Copy OK

Track 4

Filename C:\Documents and Settings\Stefano\Desktop\PFM - Storia di un minuto\04 Dove...Quando...(Parte I).wav

Pre-gap length 0:00:01.58

Peak level 98.8 %
Track quality 100.0 %
Test CRC 6548446C
Copy CRC 6548446C
Accurately ripped (confidence 4) [B3FFB622]
Copy OK

Track 5

Filename C:\Documents and Settings\Stefano\Desktop\PFM - Storia di un minuto\05 Dove...Quando...(Parte II).wav

Pre-gap length 0:00:03.34

Peak level 98.9 %
Track quality 100.0 %
Test CRC 9C24C173
Copy CRC 9C24C173
Accurately ripped (confidence 4) [30B164C5]
Copy OK

Track 6

Filename C:\Documents and Settings\Stefano\Desktop\PFM - Storia di un minuto\06 La Carrozza Di Hans.wav

Peak level 99.2 %
Track quality 99.9 %
Test CRC C0977D13
Copy CRC C0977D13
Accurately ripped (confidence 4) [832BE591]
Copy OK

Track 7

Filename C:\Documents and Settings\Stefano\Desktop\PFM - Storia di un minuto\07 Grazie Davvero.wav

Peak level 98.9 %
Track quality 100.0 %
Test CRC B9A730D5
Copy CRC B9A730D5
Accurately ripped (confidence 4) [B1E4FEC6]
Copy OK


All tracks accurately ripped

No errors occurred

End of status report
[/code]

PREMIATA FORNERIA MARCONI   Storia di un minuto   (1972) (Eac Flac)[colombo bt org] preview 3

[color=blue]01.Introduzione
02.Impressioni di settembre
03.E' Festa
04.Dove...quando parte 1
05.Dove...quando parte 2
06.La carrozza di Hans
07.Grazie davvero
[/color]

PREMIATA FORNERIA MARCONI   Storia di un minuto   (1972) (Eac Flac)[colombo bt org] preview 4

[font=Verdana]La PFM è l’unico gruppo italiano ad avere avuto un posto di rilievo nella storia del rock internazionale.
Negli anni settanta pubblicò dischi e fece tour in America e in Gran Bretagna, guadagnandosi un buon seguito e una reputazione davvero niente male.
Il “rock progressivo” (come lo si chiama ora, allora era semplicemente “musica pop”) della PFM si colloca sullo stesso livello di quello dei gruppi più blasonati come ELP, GENESIS, ecc ecc, e questo è bene sostenerlo con convinzione. All’inizio magari era un po’ acerbo e sotto gli influssi dei gruppi sopra citati, ma già dal secondo album una certa verve mediterranea venne fuori e contribuì in maniera decisiva a rendere originali il sound e la musica della PREMIATA.
Probabilmente gli album meglio riusciti sono PHOTO OF GHOSTS (1973) e CHOCOLATE KINGS (1975), ma ho deciso di proporre STORIA DI UN MINUTO (versione rimasterizzata), il primo storico album uscito nel 1972, non fosse altro per IMPRESSIONI DI SETTEMBRE e E’ FESTA, i due pezzi più celebrati della PFM.
[/font]

related torrents

Torrent name

health leech seeds Size
 

comments (0)

Main Menu