Rock

PREMIATA FORNERIA MARCONI 10 Anni Live 1977 1981 (1997)[eac flac][colombo bt org]

  • Download 5x Faster
  • Download torrent
  • Direct Download
  • Rate this torrent +  |  -

Torrent info

Name:PREMIATA FORNERIA MARCONI 10 Anni Live 1977 1981 (1997)[eac flac][colombo bt org]

Total Size: 398.26 MB

Magnet: Magnet Link

Seeds: 0

Leechers: 0

Stream: Watch Online @ Movie4u

Last Updated: 0000-00-00 00:00:00 (Update Now)

Torrent added: 2009-08-29 22:26:59




Torrent Files List


PFM - 10 Anni Live Vol 4 1977-1981 (1997)[eac flac).ffp (Size: 398.26 MB) (Files: 25)

 PFM - 10 Anni Live Vol 4 1977-1981 (1997)[eac flac).ffp

0.89 KB

 PFM 10 ANNI LIVE 4.txt

0.53 KB

 PFM copertine artwork

  PFM .jpg

319.86 KB

  PFM 400.jpg

1.05 MB

  PFM 401.jpg

1.05 MB

  PFM 402.jpg

793.56 KB

  PFM 403.jpg

497.68 KB

  PFM 404.jpg

370.65 KB

 PFM FLAC

  01 Out of the Roundabout.flac

41.28 MB

  02 Left Handed Theory.flac

24.71 MB

  03 Dove...Quando.flac

20.53 MB

  04 Jet Lag.flac

53.28 MB

  05 Greek Reflection.flac

10.78 MB

  06 Traveller.flac

31.55 MB

  07 Violin Suite.flac

18.34 MB

  08 Violin Dance.flac

8.33 MB

  09 Violin West Dance.flac

5.86 MB

  10 Anni Live 71 81 (Disc 4).cue

2.20 KB

  10 Celebration.flac

28.76 MB

  11 Passpartu.flac

48.70 MB

  12 Suonare Suonare.flac

23.44 MB

  13 Maestro Della Voce.flac

39.65 MB

  14 Cha Ha Puara Della Notte.flac

38.99 MB

 Premiata Forneria Marconi - 10 Anni Live 71 81 (Disc 4).log

6.23 KB

 Premiata Forneria Marconi - 10 Anni Live 71 81 (Disc 4).m3u

1.11 KB
 

Announce URL: http://colombo-bt.org:2710/announce

Torrent description

PREMIATA FORNERIA MARCONI   10 Anni Live 1977 1981 (1997)[eac flac][colombo bt org] preview 0

[color=blue][size=18pt]\"PREMIATA FORNERIA MARCONI - 10 Anni Live Vol.4 1977-1981 (1997)[Eac Flac]\"[/size][/color]

PREMIATA FORNERIA MARCONI   10 Anni Live 1977 1981 (1997)[eac flac][colombo bt org] preview 1

[color=blue][font=Verdana]TITOLO: PFM - 10 Anni Live vol.4 1977-1981
ANNO: 1997
ETICHETTA: S4/SONY
GENERE: Progressive / Rock
FORMATO: Flac Level 8
COPERTINE: sì (scansioni originali)
FONTE: CD originale
EDIZIONE: S4/SONY 1997 Printed in Holland
[/font][/color]

[code]Exact Audio Copy V0.99 prebeta 3 from 28. July 2007

EAC extraction logfile from 11. June 2008, 14:56

Premiata Forneria Marconi / 10 Anni Live 71/81 (Disc 4)

Used drive : PLEXTOR DVDR PX-800A Adapter: 1 ID: 0

Read mode : Secure
Utilize accurate stream : Yes
Defeat audio cache : Yes
Make use of C2 pointers : No

Read offset correction : 48
Overread into Lead-In and Lead-Out : Yes
Fill up missing offset samples with silence : Yes
Delete leading and trailing silent blocks : No
Null samples used in CRC calculations : Yes
Used interface : Installed external ASPI interface
Gap handling : Appended to previous track

Used output format : Internal WAV Routines
Sample format : 44.100 Hz; 16 Bit; Stereo


TOC of the extracted CD

Track | Start | Length | Start sector | End sector
---------------------------------------------------------
1 | 0:00.00 | 8:21.70 | 0 | 37644
2 | 8:21.70 | 4:26.17 | 37645 | 57611
3 | 12:48.12 | 4:59.63 | 57612 | 80099
4 | 17:48.00 | 10:35.42 | 80100 | 127766
5 | 28:23.42 | 2:31.13 | 127767 | 139104
6 | 30:54.55 | 5:46.67 | 139105 | 165121
7 | 36:41.47 | 4:02.38 | 165122 | 183309
8 | 40:44.10 | 1:41.35 | 183310 | 190919
9 | 42:25.45 | 1:09.72 | 190920 | 196166
10 | 43:35.42 | 5:03.00 | 196167 | 218891
11 | 48:38.42 | 7:56.15 | 218892 | 254606
12 | 56:34.57 | 4:28.28 | 254607 | 274734
13 | 61:03.10 | 7:17.42 | 274735 | 307551
14 | 68:20.52 | 6:41.70 | 307552 | 337696


Track 1

Filename C:\\Documents and Settings\\Stefano\\Desktop\\PFM - 10 Anni Live Vol 4 1977-1981 (1997)[eac flac)\\01 Out of the Roundabout.wav

Pre-gap length 0:00:02.00

Peak level 86.3 %
Track quality 100.0 %
Test CRC BB35AF58
Copy CRC BB35AF58
Track not present in AccurateRip database
Copy OK

Track 2

Filename C:\\Documents and Settings\\Stefano\\Desktop\\PFM - 10 Anni Live Vol 4 1977-1981 (1997)[eac flac)\\02 Left Handed Theory.wav

Peak level 90.8 %
Track quality 100.0 %
Test CRC 20A497FF
Copy CRC 20A497FF
Track not present in AccurateRip database
Copy OK

Track 3

Filename C:\\Documents and Settings\\Stefano\\Desktop\\PFM - 10 Anni Live Vol 4 1977-1981 (1997)[eac flac)\\03 Dove...Quando.wav

Peak level 51.9 %
Track quality 99.9 %
Test CRC B06745B5
Copy CRC B06745B5
Track not present in AccurateRip database
Copy OK

Track 4

Filename C:\\Documents and Settings\\Stefano\\Desktop\\PFM - 10 Anni Live Vol 4 1977-1981 (1997)[eac flac)\\04 Jet Lag.wav

Peak level 100.0 %
Track quality 99.9 %
Test CRC 852CB8AF
Copy CRC 852CB8AF
Track not present in AccurateRip database
Copy OK

Track 5

Filename C:\\Documents and Settings\\Stefano\\Desktop\\PFM - 10 Anni Live Vol 4 1977-1981 (1997)[eac flac)\\05 Greek Reflection.wav

Peak level 74.4 %
Track quality 100.0 %
Test CRC 1A23597B
Copy CRC 1A23597B
Track not present in AccurateRip database
Copy OK

Track 6

Filename C:\\Documents and Settings\\Stefano\\Desktop\\PFM - 10 Anni Live Vol 4 1977-1981 (1997)[eac flac)\\06 Traveller.wav

Peak level 100.0 %
Track quality 100.0 %
Test CRC 4BE66D33
Copy CRC 4BE66D33
Track not present in AccurateRip database
Copy OK

Track 7

Filename C:\\Documents and Settings\\Stefano\\Desktop\\PFM - 10 Anni Live Vol 4 1977-1981 (1997)[eac flac)\\07 Violin Suite.wav

Peak level 69.9 %
Track quality 100.0 %
Test CRC 02217B13
Copy CRC 02217B13
Track not present in AccurateRip database
Copy OK

Track 8

Filename C:\\Documents and Settings\\Stefano\\Desktop\\PFM - 10 Anni Live Vol 4 1977-1981 (1997)[eac flac)\\08 Violin Dance.wav

Peak level 89.4 %
Track quality 100.0 %
Test CRC 6AFB7A64
Copy CRC 6AFB7A64
Track not present in AccurateRip database
Copy OK

Track 9

Filename C:\\Documents and Settings\\Stefano\\Desktop\\PFM - 10 Anni Live Vol 4 1977-1981 (1997)[eac flac)\\09 Violin West Dance.wav

Peak level 94.5 %
Track quality 100.0 %
Test CRC B27684FB
Copy CRC B27684FB
Track not present in AccurateRip database
Copy OK

Track 10

Filename C:\\Documents and Settings\\Stefano\\Desktop\\PFM - 10 Anni Live Vol 4 1977-1981 (1997)[eac flac)\\10 Celebration.wav

Peak level 100.0 %
Track quality 100.0 %
Test CRC DF3E64C3
Copy CRC DF3E64C3
Track not present in AccurateRip database
Copy OK

Track 11

Filename C:\\Documents and Settings\\Stefano\\Desktop\\PFM - 10 Anni Live Vol 4 1977-1981 (1997)[eac flac)\\11 Passpartu.wav

Peak level 73.3 %
Track quality 100.0 %
Test CRC E1F737D6
Copy CRC E1F737D6
Track not present in AccurateRip database
Copy OK

Track 12

Filename C:\\Documents and Settings\\Stefano\\Desktop\\PFM - 10 Anni Live Vol 4 1977-1981 (1997)[eac flac)\\12 Suonare Suonare.wav

Peak level 86.7 %
Track quality 100.0 %
Test CRC 7E294731
Copy CRC 7E294731
Track not present in AccurateRip database
Copy OK

Track 13

Filename C:\\Documents and Settings\\Stefano\\Desktop\\PFM - 10 Anni Live Vol 4 1977-1981 (1997)[eac flac)\\13 Maestro Della Voce.wav

Peak level 88.7 %
Track quality 100.0 %
Test CRC DCE7BA07
Copy CRC DCE7BA07
Track not present in AccurateRip database
Copy OK

Track 14

Filename C:\\Documents and Settings\\Stefano\\Desktop\\PFM - 10 Anni Live Vol 4 1977-1981 (1997)[eac flac)\\14 Cha Ha Puara Della Notte.wav

Peak level 82.1 %
Track quality 100.0 %
Test CRC 8FE35817
Copy CRC 8FE35817
Track not present in AccurateRip database
Copy OK


None of the tracks are present in the AccurateRip database

No errors occurred

End of status report
[/code]

PREMIATA FORNERIA MARCONI   10 Anni Live 1977 1981 (1997)[eac flac][colombo bt org] preview 2

[color=blue]01.out on the roundabout
02.left handed theory
03.dove e quando
04.jet lag
05.greek reflections
06.traveller
07.violin suite
08.violin dance
09.violin west dance
10.celebration
11.passpartù
12.suonare suonare
13.maestro della voce
14.chi ha paura della notte
[/color]

PREMIATA FORNERIA MARCONI   10 Anni Live 1977 1981 (1997)[eac flac][colombo bt org] preview 3

PREMIATA FORNERIA MARCONI   10 Anni Live 1977 1981 (1997)[eac flac][colombo bt org] preview 4

[font=Verdana]
La PFM è l’unico gruppo italiano ad avere avuto un posto di rilievo nella storia del rock internazionale.
Negli anni settanta pubblicò dischi e fece tour in America e in Gran Bretagna, guadagnandosi un buon seguito e una reputazione davvero niente male.
Il “rock progressivo” (come lo si chiama ora, allora era semplicemente “musica pop”) della PFM si colloca sullo stesso livello di quello dei gruppi più blasonati come ELP, GENESIS, ecc ecc, e questo è bene sostenerlo con convinzione. All’inizio magari era un po’ acerbo e sotto gli influssi dei gruppi sopra citati, ma già dal secondo album una certa verve mediterranea venne fuori e contribuì in maniera decisiva a rendere originali il sound e la musica della PREMIATA.

Nel 1997 vennero pubblicati 4 Cd intitolati 10 ANNI LIVE, testimonianze dei loro tour degli anni settanta. Quello che propongo qui è il Volume 4, dedicato agli anni 1977-1978-1980 e 1981.
La qualità del gruppo in quegli anni non si discute, la bellezza dei pezzi nemmeno.
Si passa dall’ultimo periodo del gruppo col cantante BERNARDO LANZETTI sospeso tra progressive e jazz-rock alla fase rock dei primissimi anni ottanta.
Meglio specificare che si tratta in pratica di “bootleg ufficiali” è quindi bene non aspettarsi qualità sonora cristallina, ma vale anche la pena sottolineare che questa qualità sonora rimane sempre al di sopra di un livello ben più che accettabile.
PFM: Italy’s pride and joy!

(recensione di nonantolaslim giugno 08)
[/font]

related torrents

Torrent name

health leech seeds Size
 

comments (0)

Main Menu