Thriller

Knowing[2009]DvDrip LW

  • Download 5x Faster
  • Download torrent
  • Direct Download
  • Rate this torrent +  |  -
Knowing[2009]DvDrip LW

Download FREE And Anonymously


Torrent info

Name:Knowing[2009]DvDrip LW

Total Size: 1.05 GB

Magnet: Magnet Link

Seeds: 6

Leechers: 2

Stream: Watch Full Movie @ Movie4u

Last Updated: 2010-05-05 01:19:52 (Update Now)

Torrent added: 2009-08-29 22:17:42



VPN For Torrents

Torrent Files List


Covers (Size: 1.05 GB) (Files: 5)

 Covers

  Cover.jpg

47.89 KB

  DvD Cover.jpg

23.69 KB

 Knowing[2009]DvDrip-LW.avi

1.05 GB

 Movie Info.txt

3.35 KB

 tracked_by_h33t_com.txt

0.02 KB
 

Announce URL: http://www.h33t.com:3310/announce

Torrent description

-------------------------------------------------
F I L E - I N F O
-------------------------------------------------
TITLE......[ Knowing
YEAR.......[ 2009
GENRE......[ Thriller
RUNTIME....[ 02:01:29
STORE DATE.[ 2009 (USA)
IMDB RATE..[ 6.7/10 (17,254 Votes)
IMDB URL...[ http://www.imdb.com/title/tt0448011/
-------------------------------------------------
Format : AVI
Format/Info : Audio Video Interleave
File size : 1.05 GiB
Duration : 2h 1mn
Overall bit rate : 1 235 Kbps
Writing application : VirtualDubMod 1.5.4.1 (build 2178/release)
Writing library : VirtualDubMod build 2178/release
SOURCE : DVD
-------------------------------------------------
V I D E O
-------------------------------------------------
Format : MPEG-4 Visual
Format profile : Streaming [email protected]
Format settings, BVOP : Yes
Format settings, QPel : No
Format settings, GMC : No warppoints
Format settings, Matrix : Custom
Codec ID : XVID
Codec ID/Hint : XviD
Duration : 2h 1mn
Bit rate : 1 004 Kbps
Width : 640 pixels
Height : 272 pixels
Display aspect ratio : 2.35
Frame rate : 23.976 fps
Resolution : 24 bits
Colorimetry : 4:2:0
Scan type : Progressive
Bits/(Pixel*Frame) : 0.241
Stream size : 873 MiB (81%)
Writing library : XviD 1.2.1
-------------------------------------------------
A U D I O
-------------------------------------------------
Format : MPEG Audio
Format version : Version 1
Format profile : Layer 3
Codec ID : 55
Codec ID/Hint : MP3
Duration : 2h 1mn
Bit rate mode : Constant
Bit rate : 224 Kbps
Minimum bit rate : 224 Kbps
Channel(s) : 2 channels
Sampling rate : 48.0 KHz
Resolution : 16 bits
Stream size : 195 MiB (18%)
Alignment : Aligned on interleaves
Interleave, duration : 83 ms (2.00 video frames)
Interleave, preload duration : 504 ms
Writing library : LAME3.98r
Encoding settings : CBR
-------------------------------------------------
P L O T
-------------------------------------------------
Fifty years after a time capsule was buried at a
local school, teacher John Koestler (Nicolas Cage)
examines its contents and discovers that it holds
many shockingly true predictions. Soon, John is
convinced that his family will play a role in an
impending apocalypse. Rose Byrne co-stars as Diane
Wayland, the daughter of the woman who first buried
the capsule, in this tense blockbuster thriller from
ace sci-fi auteur Alex Proyas.

Starring: Nicolas Cage, Rose Byrne

Director: Alex Proyas
-------------------------------------------------

related torrents

Torrent name

health leech seeds Size

Knowing[2009]dvdrip lw

0 0 1.00 GB 0
 


comments (0)

Main Menu

 

script data-cfasync="false" src="//d2ghscazvn398x.cloudfront.net/?cshgd=690275">