Thriller

Iscariot 2008 MULTISUBS DVDRip XviD Cocc

  • Download 5x Faster
  • Download torrent
  • Direct Download
  • Rate this torrent +  |  -
Iscariot 2008 MULTISUBS DVDRip XviD Cocc

Free and Direct Download with Usenet.nl 300GB+ free


Torrent info

Name:Iscariot 2008 MULTISUBS DVDRip XviD Cocc

Total Size: 701.20 MB

Magnet: Magnet Link

Seeds: 0

Leechers: 0

Stream: Watch Online @ Movie4u

Last Updated: 2010-08-13 05:23:36 (Update Now)

Torrent added: 2009-08-29 22:04:59





Torrent Files List


Iscariot.2008. MULTISUBS.DVDRip.XviD-Cocc.avi (Size: 701.20 MB) (Files: 2)

 Iscariot.2008. MULTISUBS.DVDRip.XviD-Cocc.avi

699.45 MB

 Sub.rar

1.75 MB
 

Announce URL: http://vip.tracker.thepiratebay.org:80/announce

Torrent description

Iscariot (2008)

"Valle lives a perfect life with his wife and young daughter, until
Valle's younger brother Adam shows up. He makes his living as a drug
dealer and is always getting himself into trouble. This time it is
serious; he's lost 4 kilos of cocaine in a pick-up gone wrong. Adam
has two days to clear his debt with the syndicate, otherwise he's a
dead man. Valle has promised himself and his family never to get
involved in Adam's business. Eventually however, he agrees to put up
personal bail for Adam. Just as things seem to be going his way,
Adam mistakenly shoots one of the men from the syndicate, putting
not only his but everyone else's life at stake.
Only Valle can save them.


IMDb http://www.imdb.com/title/tt1014765/

Subtitles: Swe, Nor, Dan, Fin, Is



General
Complete name : Iscariot.2008. MULTISUBS.DVDRip.XviD-Cocc.avi
Format : AVI
Format/Info : Audio Video Interleave
File size : 699 MiB
Duration : 1h 20mn
Overall bit rate : 1 221 Kbps

Video
Format : MPEG-4 Visual
Format profile : Streaming [email protected]
Format settings, BVOP : Yes
Format settings, QPel : No
Format settings, GMC : No warppoints
Format settings, Matrix : Default
Codec ID : XVID
Codec ID/Hint : XviD
Duration : 1h 20mn
Bit rate : 1 019 Kbps
Width : 640 pixels
Height : 272 pixels
Display aspect ratio : 2.35
Frame rate : 25.000 fps
Resolution : 24 bits
Colorimetry : 4:2:0
Scan type : Progressive
Bits/(Pixel*Frame) : 0.234
Stream size : 584 MiB (83%)
Writing library : XviD 1.1.2 (UTC 2006-11-01)

Audio
Format : AC-3
Format/Info : Audio Coding 3
Codec ID : 2000
Duration : 1h 20mn
Bit rate mode : Constant
Bit rate : 192 Kbps
Channel(s) : 2 channels
Channel positions : L R
Sampling rate : 48.0 KHz
Stream size : 110 MiB (16%)
Alignment : Split accross interleaves

related torrents

Torrent name

health leech seeds Size
 

comments (0)

Main Menu