Rock

Chris Rea 2001 The Very Best Of [flac+m3u]

  • Download 5x Faster
  • Download torrent
  • Direct Download
  • Rate this torrent +  |  -
Chris Rea 2001 The Very Best Of [flac+m3u]

Anonymous and free Direct Download 300GB+


Torrent info

Name:Chris Rea 2001 The Very Best Of [flac+m3u]

Total Size: 529.13 MB

Magnet: Magnet Link

Seeds: 0

Leechers: 0

Stream: Watch Online @ Movie4u

Last Updated: 2015-07-31 03:49:42 (Update Now)

Torrent added: 2009-08-29 22:01:02



VPN For Torrents

Torrent Files List


01 - Chris Rea - Chris Rea , The Road To Hell (Part 2).flac (Size: 529.13 MB) (Files: 24)

 01 - Chris Rea - Chris Rea , The Road To Hell (Part 2).flac

31.94 MB

 02 - Chris Rea - Fool (If You Think It's Over).flac

28.66 MB

 03 - Chris Rea - Let's Dance.flac

30.26 MB

 04 - Chris Rea - You Can Go Your Own Way.flac

26.37 MB

 05 - Chris Rea - Julia.flac

27.95 MB

 06 - Chris Rea - Stainsby Girls.flac

29.63 MB

 07 - Chris Rea - Tell Me There's A Heaven.flac

35.41 MB

 08 - Chris Rea - Josephine.flac

21.37 MB

 09 - Chris Rea - Steel River.flac

39.76 MB

 10 - Chris Rea - On The Beach.flac

47.85 MB

 11 - Chris Rea - I Can Hear Your Heartbeat.flac

24.94 MB

 12 - Chris Rea - All Summer Long.flac

24.69 MB

 13 - Chris Rea - The Blue Cafe.flac

33.02 MB

 14 - Chris Rea - Auberge.flac

34.15 MB

 15 - Chris Rea - Driving Home For Christmas.flac

27.82 MB

 16 - Chris Rea - Nothing To Fear.flac

25.33 MB

 17 - Chris Rea - Saudade Part 1 & 2 (Tribute To Ayrton Senna).flac

38.51 MB

 Artwork

  Chris Rea - The Very Best Of Chris Rea - CD.jpg

98.30 KB

  Chris Rea - The Very Best Of Chris Rea - Front (1-2).jpg

74.18 KB

  Chris Rea - The Very Best Of Chris Rea - Front (2-2).jpg

885.75 KB

  Chris_Rea_-_The_Very_Best_Of-[Back].jpg

358.71 KB

  Chris_Rea_-_The_Very_Best_Of-[Front].jpg

82.71 KB

 Chris Rea - The Very Best Of.m3u

1.46 KB

 The Very Best Of.log

5.25 KB
 

tracker

leech seeds
 

Torrent description

Chris Rea -The Very Best Of..., [Lossless Flac + M3U.]

by ramasutra

:::->Dati Album<-:::


Autore:Chris Rea
Titolo: The Very Best Of...
Anno:2001
Genere: Rock /
Etichetta: polydor
fonte cd /originale /cdda
Cover : Incluse

:::->Tracklist<-:::

1. Road to Hell, Pt. 2
2. Fool (If You Think It\'s Over)
3. Let\'s Dance
4. You Can Go Your Own Way
5. Julia
6. Stainsby Girls
7. Tell Me There\'s a Heaven
8. Josephine
9. Steel River
10. On the Beach
11. I Can Hear Your Heartbeat
12. All Summer Long
13. Blue Cafe
14. Auberge
15. Driving Home for Christmas
16. Nothing to Fear
17. Saudade, Pt. 1 & 2 (Tribute to Ayrton Senn

EAC extraction logfile from 8. April 2007, 13:37 for CD
Chris Rea / The Very Best Of

Used drive : _NEC DVD_RW ND-3520A Adapter: 1 ID: 2
Read mode : Secure with NO C2, accurate stream, disable cache
Read offset correction : 48
Overread into Lead-In and Lead-Out : No

Used output format : C:\\Program Files\\Exact Audio Copy\\flac.exe (User Defined Encoder)
678 kBit/s
Additional command line options : -8 -A tukey(0.25) -A gauss(0.1875) -b 4096 -V -T \"artist=%a\" -T \"title=%t\" -T \"album=%g\" -T \"date=%y\" -T \"tracknumber=%n\" -T \"genre=%m\" %s --sector-align

Other options :
Fill up missing offset samples with silence : Yes
Delete leading and trailing silent blocks : No
Installed external ASPI interface


Track 1
Filename Y:\\ipod dvd\\Chris Rea - The Very Best Of (2001)\\01 - Chris Rea - Chris Rea , The Road To Hell (Part 2).wav

Pre-gap length 0:00:02.00

Peak level 98.8 %
Track quality 100.0 %
Test CRC 39EC3F57
Copy CRC 39EC3F57
Copy OK

Track 2
Filename Y:\\ipod dvd\\Chris Rea - The Very Best Of (2001)\\02 - Chris Rea - Fool (If You Think It\'s Over).wav

Pre-gap length 0:00:01.00

Peak level 98.8 %
Track quality 100.0 %
Test CRC 85526173
Copy CRC 85526173
Copy OK

Track 3
Filename Y:\\ipod dvd\\Chris Rea - The Very Best Of (2001)\\03 - Chris Rea - Let\'s Dance.wav

Pre-gap length 0:00:01.00

Peak level 98.8 %
Track quality 99.9 %
Test CRC BC0FCF6C
Copy CRC BC0FCF6C
Copy OK

Track 4
Filename Y:\\ipod dvd\\Chris Rea - The Very Best Of (2001)\\04 - Chris Rea - You Can Go Your Own Way.wav

Pre-gap length 0:00:01.00

Peak level 98.8 %
Track quality 100.0 %
Test CRC B9CA7B99
Copy CRC B9CA7B99
Copy OK

Track 5
Filename Y:\\ipod dvd\\Chris Rea - The Very Best Of (2001)\\05 - Chris Rea - Julia.wav

Pre-gap length 0:00:01.00

Peak level 98.8 %
Track quality 100.0 %
Test CRC E045BB5D
Copy CRC E045BB5D
Copy OK

Track 6
Filename Y:\\ipod dvd\\Chris Rea - The Very Best Of (2001)\\06 - Chris Rea - Stainsby Girls.wav

Pre-gap length 0:00:01.00

Peak level 98.8 %
Track quality 100.0 %
Test CRC 4D5EDE0A
Copy CRC 4D5EDE0A
Copy OK

Track 7
Filename Y:\\ipod dvd\\Chris Rea - The Very Best Of (2001)\\07 - Chris Rea - Tell Me There\'s A Heaven.wav

Pre-gap length 0:00:01.00

Peak level 98.8 %
Track quality 100.0 %
Test CRC 06E333AB
Copy CRC 06E333AB
Copy OK

Track 8
Filename Y:\\ipod dvd\\Chris Rea - The Very Best Of (2001)\\08 - Chris Rea - Josephine.wav

Pre-gap length 0:00:01.00

Peak level 98.8 %
Track quality 99.9 %
Test CRC EF36D632
Copy CRC EF36D632
Copy OK

Track 9
Filename Y:\\ipod dvd\\Chris Rea - The Very Best Of (2001)\\09 - Chris Rea - Steel River.wav

Pre-gap length 0:00:01.00

Peak level 98.8 %
Track quality 100.0 %
Test CRC AC016986
Copy CRC AC016986
Copy OK

Track 10
Filename Y:\\ipod dvd\\Chris Rea - The Very Best Of (2001)\\10 - Chris Rea - On The Beach.wav

Pre-gap length 0:00:01.00

Peak level 98.8 %
Track quality 100.0 %
Test CRC 09B00540
Copy CRC 09B00540
Copy OK

Track 11
Filename Y:\\ipod dvd\\Chris Rea - The Very Best Of (2001)\\11 - Chris Rea - I Can Hear Your Heartbeat.wav

Pre-gap length 0:00:01.00

Peak level 98.8 %
Track quality 99.9 %
Test CRC BAC20A13
Copy CRC BAC20A13
Copy OK

Track 12
Filename Y:\\ipod dvd\\Chris Rea - The Very Best Of (2001)\\12 - Chris Rea - All Summer Long.wav

Pre-gap length 0:00:01.00

Peak level 98.8 %
Track quality 100.0 %
Test CRC B92E51CF
Copy CRC B92E51CF
Copy OK

Track 13
Filename Y:\\ipod dvd\\Chris Rea - The Very Best Of (2001)\\13 - Chris Rea - The Blue Cafe.wav

Pre-gap length 0:00:01.00

Peak level 98.8 %
Track quality 100.0 %
Test CRC 07513A93
Copy CRC 07513A93
Copy OK

Track 14
Filename Y:\\ipod dvd\\Chris Rea - The Very Best Of (2001)\\14 - Chris Rea - Auberge.wav

Pre-gap length 0:00:01.00

Peak level 98.8 %
Track quality 100.0 %
Test CRC 0A67F217
Copy CRC 0A67F217
Copy OK

Track 15
Filename Y:\\ipod dvd\\Chris Rea - The Very Best Of (2001)\\15 - Chris Rea - Driving Home For Christmas.wav

Pre-gap length 0:00:01.00

Peak level 98.8 %
Track quality 100.0 %
Test CRC EDA2183A
Copy CRC EDA2183A
Copy OK

Track 16
Filename Y:\\ipod dvd\\Chris Rea - The Very Best Of (2001)\\16 - Chris Rea - Nothing To Fear.wav

Pre-gap length 0:00:01.00

Peak level 98.8 %
Track quality 100.0 %
Test CRC F0E0FC76
Copy CRC F0E0FC76
Copy OK

Track 17
Filename Y:\\ipod dvd\\Chris Rea - The Very Best Of (2001)\\17 - Chris Rea - Saudade Part 1 & 2 (Tribute To Ayrton Senna).wav

Pre-gap length 0:00:01.00

Peak level 98.8 %
Track quality 100.0 %
Test CRC 48938C61
Copy CRC 48938C61
Copy OK

No errors occured


End of status report


related torrents

Torrent name

health leech seeds Size
 


comments (0)

Main Menu