Rock

PFM Per Un Amico[24 bit digital remastering][EAC FLAC CUE][colombo bt org]

  • Download 5x Faster
  • Download torrent
  • Direct Download
  • Rate this torrent +  |  -
PFM Per Un Amico[24 bit digital remastering][EAC FLAC CUE][colombo bt org]

Free and Direct Download with Usenet.nl 300GB+ free


Torrent info

Name:PFM Per Un Amico[24 bit digital remastering][EAC FLAC CUE][colombo bt org]

Total Size: 207.03 MB

Magnet: Magnet Link

Seeds: 0

Leechers: 0

Stream: Watch Online @ Movie4u

Last Updated: 2010-12-02 13:07:51 (Update Now)

Torrent added: 2009-08-29 21:48:41





Torrent Files List


Premiata Forneria Marconi - Per Un Amico.cue (Size: 207.03 MB) (Files: 5)

 Premiata Forneria Marconi - Per Un Amico.cue

0.84 KB

 Premiata Forneria Marconi - Per Un Amico.flac

206.54 MB

 Premiata Forneria Marconi - Per Un Amico.log

2.15 KB

 Premiata Forneria Marconi PFM - Per Un Amico - Back.jpg

279.08 KB

 Premiata Forneria Marconi PFM - Per Un Amico - Front.jpg

222.12 KB
 

Announce URL: http://colombo-bt.org:2710/announce

Torrent description

Titolo: Per Un Amico
Anno: 1972
Genere: Progressive Rock
Covers Incluse: front/back
Fonte: cd originale

Log:
[code]Exact Audio Copy V0.99 prebeta 3 from 28. July 2007

EAC extraction logfile from 16. March 2008, 15:11

Premiata Forneria Marconi / Per Un Amico

Used drive : HL-DT-STDVDRAM GSA-4163B Adapter: 1 ID: 0

Read mode : Secure
Utilize accurate stream : Yes
Defeat audio cache : Yes
Make use of C2 pointers : No

Read offset correction : 667
Overread into Lead-In and Lead-Out : No
Fill up missing offset samples with silence : Yes
Delete leading and trailing silent blocks : No
Null samples used in CRC calculations : Yes
Used interface : Installed external ASPI interface

Used output format : User Defined Encoder
Selected bitrate : 1024 kBit/s
Quality : High
Add ID3 tag : No
Command line compressor : C:\Programmi\Exact Audio Copy\FLAC\FLAC.EXE
Additional command line options : -8 -V -T "ARTIST=%a" -T "TITLE=%t" -T "ALBUM=%g" -T "DATE=%y" -T "TRACKNUMBER=%n" -T "GENRE=%m" -T "COMMENT=%e" %s -o %d


TOC of the extracted CD

Track | Start | Length | Start sector | End sector
---------------------------------------------------------
1 | 0:00.00 | 7:46.39 | 0 | 34988
2 | 7:46.39 | 4:18.36 | 34989 | 54374
3 | 12:05.00 | 5:24.27 | 54375 | 78701
4 | 17:29.27 | 8:40.68 | 78702 | 117769
5 | 26:10.20 | 8:07.26 | 117770 | 154320


Range status and errors

Selected range

Filename D:\PFM - Per Un Amico\Premiata Forneria Marconi - Per Un Amico.wav

Peak level 99.9 %
Range quality 100.0 %
Test CRC F8F5B534
Copy CRC F8F5B534
Copy OK

No errors occurred


AccurateRip summary

Track 1 accurately ripped (confidence 3) [BF6B09B5]
Track 2 accurately ripped (confidence 3) [EF6A04EA]
Track 3 accurately ripped (confidence 3) [635DE0F0]
Track 4 accurately ripped (confidence 3) [154154C5]
Track 5 accurately ripped (confidence 2) [2AAC3560]

All tracks accurately ripped

End of status report
[/code]

1. Appena un Po' (07:43)
2. Generale (04:18)
3. Per un Amico (05:23)
4. Il Banchetto (08:39)
5. Geranio (08:03)

[color=black]LINE UP
- Franco Mussida - voce, chitarra 12 corde, chitarrone, mandolino, chitarra
- Franz Di Cioccio - batteria, percussioni, voce
- Mauro Pagani - flauto traverso, flauto dolce, violino, voce
- Giorgio Piazza - basso, voce
- Flavio Premoli - spinetta, tastiera, Hammond, voce, Moog, Mellotron, tubular bells, clavicembalo, pianoforte[/color]:

please seed and enjoy us @ colombo-bt.org

related torrents

Torrent name

health leech seeds Size
 

comments (0)

Main Menu