Sports related

Australian Football Legue 2009 Round 22 Carlton VS Adelaide Crows 29 08 2009

  • Download 5x Faster
  • Download torrent
  • Direct Download
  • Rate this torrent +  |  -

Torrent info

Name:Australian Football Legue 2009 Round 22 Carlton VS Adelaide Crows 29 08 2009

Total Size: 1.37 GB

Magnet: Magnet Link

Seeds: 0

Leechers: 0

Stream: Watch Online @ Movie4u

Last Updated: 2016-01-29 06:57:19 (Update Now)

Torrent added: 2009-08-29 21:35:33



VPN For Torrents

Torrent Files List


Carlton VS Crows.avi (Size: 1.37 GB) (Files: 5)

 Carlton VS Crows.avi

1.37 GB

 poster.png

289.25 KB

 03.jpg

37.76 KB

 02.jpg

36.96 KB

 01.jpg

29.49 KB
 

tracker

leech seeds
 

Torrent description

Australian Football Legue 2009   Round 22   Carlton VS Adelaide Crows   29 08 2009 preview 0


General
Complete name : Carlton VS Crows.avi
Format : AVI
Format/Info : Audio Video Interleave
File size : 1.37 GiB
Duration : 2h 0mn
Overall bit rate : 1 630 Kbps
Writing application : VirtualDubMod 1.5.4.1 (build 2178/release)
Writing library : VirtualDubMod build 2178/release

Video
ID : 0
Format : MPEG-4 Visual
Format profile : Streaming [email protected]
Format settings, BVOP : Yes
Format settings, QPel : No
Format settings, GMC : No warppoints
Format settings, Matrix : Default (H.263)
Muxing mode : Packed bitstream
Codec ID : XVID
Codec ID/Hint : XviD
Duration : 2h 0mn
Bit rate : 1 430 Kbps
Width : 720 pixels
Height : 416 pixels
Display aspect ratio : 16/9
Frame rate : 25.000 fps
Resolution : 24 bits
Colorimetry : 4:2:0
Scan type : Progressive
Bits/(Pixel*Frame) : 0.191
Stream size : 1.20 GiB (88%)
Writing library : XviD 1.2.1 (UTC 2008-12-04)

Audio
ID : 1
Format : MPEG Audio
Format version : Version 1
Format profile : Layer 3
Codec ID : 55
Codec ID/Hint : MP3
Duration : 2h 0mn
Bit rate mode : Constant
Bit rate : 192 Kbps
Channel(s) : 2 channels
Sampling rate : 48.0 KHz
Resolution : 16 bits
Stream size : 165 MiB (12%)
Alignment : Aligned on interleaves
Interleave, duration : 80 ms (2.00 video frames)
Interleave, preload duration : 504 ms
Writing library : LAME3.98r
Encoding settings : -m j -V 4 -q 2 -lowpass 18.6 -b 192



Screenshots:

Australian Football Legue 2009   Round 22   Carlton VS Adelaide Crows   29 08 2009 preview 1
Australian Football Legue 2009   Round 22   Carlton VS Adelaide Crows   29 08 2009 preview 2

related torrents

Torrent name

health leech seeds Size
 


comments (0)

Main Menu