Other

Light Keepers 2010 camrip xvid imagine

  • Download 5x Faster
  • Download torrent
  • Direct Download
  • Rate this torrent +  |  -
Light Keepers 2010 camrip xvid imagine

Free and Direct Download with Usenet 300GB+ free


Torrent info

Name:Light Keepers 2010 camrip xvid imagine

Total Size: 696.43 MB

Magnet: Magnet Link

Seeds: 0

Leechers: 0

Stream: Watch Online @ Movie4u

Last Updated: 2010-09-29 19:06:20 (Update Now)

Torrent added: 2010-02-22 12:00:11




Torrent Files List


 

Announce URL: http://nemesis.1337x.org/announce

Torrent description

MORE iNFO:

http://dupedb.com/


TRACKER:

http://tracker.dupedb.com/


XviD:

http://dupedb.com/category/XVID/


TV:

http://dupedb.com/category/tv/


Enjoy!

Ripper ...........: IMAGiNE
IMDB Rating.......:7.6/10
Video Codec.......: XVID
Release Date......:19/01/10
Audio Codec.......:MP3
Theatre Date......:15/01/10
Audio Bitrate.....:128
Runtime.......:1h 48mn
Subtitles.........:NIL
Language..........:ENGLISH
Resolution...... 608 x 256
IMDb URL..........:

http://www.imdb.com/title/tt1037705/


DETAILS:

Video
ID : 0
Format : MPEG-4 Visual
Format profile : Advanced Simple@L5
Format settings, BVOP : Yes
Format settings, QPel : No
Format settings, GMC : No warppoints
Format settings, Matrix : Default (H.263)
Muxing mode : Packed bitstream
Codec ID : XVID
Codec ID/Hint : XviD
Duration : 1h 48mn
Bit rate : 773 Kbps
Width : 608 pixels
Height : 256 pixels
Display aspect ratio : 2.35
Frame rate : 23.976 fps
Resolution : 24 bits
Colorimetry : 4:2:0
Scan type : Progressive
Bits/(Pixel*Frame) : 0.207
Stream size : 599 MiB (85%)
Writing library : XviD 1.2.1 (UTC 2008-12-04)

Audio
ID : 1
Format : MPEG Audio
Format version : Version 1
Format profile : Layer 3
Codec ID : 55
Codec ID/Hint : MP3
Duration : 1h 48mn
Bit rate mode : Constant
Bit rate : 128 Kbps
Channel(s) : 2 channels
Sampling rate : 44.1 KHz
Resolution : 16 bits
Video delay : 25ms
Stream size : 99.1 MiB (14%)
Alignment : Split accross interleaves
Interleave, duration : 42 ms (1.00 video frame)
Interleave, preload duration : 500 ms


NOTES:

IMAGiNE bringing you another release.....
Here we go this time......for our video we used LU's (thanks) as it was the best todate.
The video itself is nothing special,low bitrate,small res etc.....also the colouring is weird on it in some parts,but
i believe thats how the film is made (same as daybreakers weird colouring).
The audio is our own,and sounds pretty good...loving the new toy
We've done some work on the video and then basically synced up our audio.....which wasn't easy due to the
video quality,but never the less we got it done.
Enjoy until our V2 comes out (once better video is available)

related torrents

Torrent name

health leech seeds Size

Light Keepers 2010 Camrip

0 0 703.24 MB 0
 

comments (0)

Main Menu