Thriller

Franklyn 2008 DVDRIP XviD ZEKTORM

  • Download 5x Faster
  • Download torrent
  • Direct Download
  • Rate this torrent +  |  -
Franklyn 2008 DVDRIP XviD ZEKTORM

Free and Direct Download with Usenet 300GB+ free


Torrent info

Name:Franklyn 2008 DVDRIP XviD ZEKTORM

Total Size: 706.23 MB

Magnet: Magnet Link

Seeds: 0

Leechers: 1

Stream: Watch Online @ Movie4u

Last Updated: 2016-11-15 17:06:08 (Update Now)

Torrent added: 2009-08-29 21:25:40




Torrent Files List


F-ZEKTORM.avi (Size: 706.23 MB) (Files: 5)

 F-ZEKTORM.avi

701.52 MB

 READ.hlp

11.27 KB

 Subs

  F-ZEKTORM.idx

50.26 KB

  F-ZEKTORM.sub

4.66 MB

 Torrent downloaded from Demonoid.com.txt

0.05 KB
 

tracker

leech seeds
 

Torrent description

Format : AVI
File size : 702 MiB
Duration : 1h 34mn
Overall bit rate : 1043 Kbps
Subtitles : English (Format: VobSub)
Source : DVD PAL

Video
Format : MPEG-4 Visual
Format profile : Streaming [email protected]
Codec ID : XVID
Codec ID/Hint : XviD
Duration : 1h 34mn
Bit rate : 920 Kbps
Width : 720 pixels
Height : 304 pixels
Display aspect ratio : 2.35
Frame rate : 25.000 fps
Resolution : 24 bits
Colorimetry : 4:2:0
Scan type : Progressive
Bits/(Pixel*Frame) : 0.168
Stream size : 618 MiB (88%)
Writing library : XviD

Audio
Format : MPEG Audio
Format version : Version 1
Format profile : Layer 3
Codec ID : 55
Codec ID/Hint : MP3
Duration : 1h 34mn
Bit rate mode : Variable
Bit rate : 111 Kbps
Minimum bit rate : 128 Kbps
Channel(s) : 2 channels
Sampling rate : 48.0 KHz
Resolution : 16 bits
Stream size : 74.4 MiB (11%)
Writing library : LAME3.98r
Encoding settings : ABR

related torrents

Torrent name

health leech seeds Size

Franklyn 2008 DvDRip FxM

0 0 699.95 MB 0
 

comments (0)

Main Menu