Thriller

FALLEN DEWSTRR

  • Download 5x Faster
  • Download torrent
  • Direct Download
  • Rate this torrent +  |  -
FALLEN DEWSTRR

Anonymous and Direct Download 300GB+ free


Torrent info

Name:FALLEN DEWSTRR

Total Size: 1.09 GB

Magnet: Magnet Link

Seeds: 0

Leechers: 0

Stream: Watch Online @ Movie4u

Last Updated: 2010-10-08 08:25:15 (Update Now)

Torrent added: 2009-08-29 21:10:49




Torrent Files List


FALLEN.avi (Size: 1.09 GB) (Files: 15)

 FALLEN.avi

1.09 GB

 FALLEN.NFO

2.96 KB

 FALLEN.sfv

1.53 KB

 FLN 1.jpg

11.38 KB

 FLN 10.jpg

9.62 KB

 FLN 2.jpg

12.25 KB

 FLN 3.jpg

9.74 KB

 FLN 4.jpg

17.05 KB

 FLN 5.jpg

15.98 KB

 FLN 6.jpg

8.67 KB

 FLN 7.jpg

16.19 KB

 FLN 8.jpg

14.14 KB

 FLN 9.jpg

14.40 KB

 FLN CP.jpg

18.92 KB

 Torrent_downloaded_from_Demonoid.com.txt

0.05 KB
 

Announce URL: http://inferno.demonoid.com:3413/announce

Torrent description

FALLEN 1998 DVDRIP

Crime | Drama | Thriller

Detective John Hobbes has captured and imprisoned the crazy serial killer Edgar Reese, then Reese was brought to execution by gas chamber. Hobbes thought his nightmare with this killer is finally over. However, he soon discovers that there was a murder in a style very similar to Edgar Reese. Then, he found out that it was an evil fallen angel named Azazel, who can exist by possessing other people's bodies. As Hobbes tries to find out the mystery of Azazel, he also has to find a way to do the impossible, stop a fallen angel.

FALLEN DEWSTRR preview 0

http://www.imdb.com/title/tt0119099/

Format : AVI
Format/Info : Audio Video Interleave
File size : 1.09 GiB
Duration : 2h 4mn
Overall bit rate : 1 262 Kbps
Writing application : VirtualDubMod 1.5.4.1 (build 2178/release)
Writing library : VirtualDubMod build 2178/release

Video
Format : MPEG-4 Visual
Format settings, BVOP : Yes
Format settings, QPel : No
Format settings, GMC : No warppoints
Format settings, Matrix : Default
Codec ID : DX50
Codec ID/Hint : DivX 5
Duration : 2h 4mn
Bit rate : 871 Kbps
Width : 608 pixels
Height : 256 pixels
Display aspect ratio : 2.35
Frame rate : 23.976 fps
Resolution : 24 bits
Colorimetry : 4:2:0
Scan type : Progressive
Bits/(Pixel*Frame) : 0.233
Stream size : 774 MiB (69%)
Writing library : DivX 2816

Audio
Format : AC-3
Format/Info : Audio Coding 3
Codec ID : 2000
Duration : 2h 4mn
Bit rate mode : Constant
Bit rate : 384 Kbps
Channel(s) : 6 channels
Channel positions : Front: L C R, Surround: L R, LFE
Sampling rate : 48.0 KHz
Video delay : 16ms
Stream size : 341 MiB (30%)
Alignment : Split accross interleaves
Interleave, duration : 96 ms (2.30 video frames)
Interleave, preload duration : 96 ms

General
Complete name : FALLEN.sfv
File size : 1.43 KiB

General
Complete name : FALLEN.DEWSTRR\Torrent_downloaded_from_Demonoid.com.txt
File size : 47.0 Bytes
IMG]FALLEN DEWSTRR preview 1
FALLEN DEWSTRR preview 2
FALLEN DEWSTRR preview 3
FALLEN DEWSTRR preview 4
FALLEN DEWSTRR preview 5
FALLEN DEWSTRR preview 6
FALLEN DEWSTRR preview 7
FALLEN DEWSTRR preview 8
FALLEN DEWSTRR preview 9
FALLEN DEWSTRR preview 10
burned with windows [with a couple of other movies on a disk] and played on my philips divx ultra certified dvd player
be sure to set your dvd player on the correct aspect ratio

related torrents

Torrent name

health leech seeds Size

THE 13TH WARRIOR DEWSTRR

5 11 1.09 GB 0
 


comments (0)

Main Menu