Comedy

Cool Runnings DVD Rip XviD

  • Download 5x Faster
  • Download torrent
  • Direct Download
  • Rate this torrent +  |  -
Cool Runnings DVD Rip XviD

Download FREE And Anonymously


Torrent info

Name:Cool Runnings DVD Rip XviD

Total Size: 789.64 MB

Magnet: Magnet Link

Seeds: 1

Leechers: 0

Stream: Watch Full Movie @ Movie4u

Last Updated: 2010-04-27 22:25:28 (Update Now)

Torrent added: 2008-08-14 00:33:58



VPN For Torrents

Torrent Files List


Cool.Runnings.avi (Size: 789.64 MB) (Files: 1)

 Cool.Runnings.avi

789.64 MB
 

Announce URL: http://wreckingcrew.zapto.org/announce.php

Torrent description


...::::Edelweis-Group Presents::::...

Torrent Name: Cool Runnings

-------------------------

--> Movie/Serie

Sprache: [X] Deutsch [ ] Englisch [ ] siehe Beschreibung

Quelle:
Video: [ ] HDTV [X] DVD [ ] TV/dTV [ ] TS [ ] Cam [ ] Sonstiges
Audio: [ ] HDTV [X] DVD [ ] TV/dTV [ ] LD [ ] Micro [ ] Sonstiges

Genre: Mysterie


Untertitel: Keine

Extras: keine



-------------------------

Beschreibung:
Derice aus Jamaika träumt davon, einmal als 100-Meter-Läufer bei den Olympischen Spielen teilnehmen zu dürfen. Doch als er schon bei der

Ausscheidung stürzt, ist das Ziel in weite Ferne gerückt. Da kommt er auf die Idee, stattdessen als Bobfahrer bei der Winterolympiade

anzutreten. Kurzerhand trommelt er ein Team zusammen und engagiert einen Trainer. Schließlich beginnen die Jungs, ohne den blassesten

Schimmer von dieser Sportart zu haben, im sommerlichen Jamaika mit Trockenübungen für das Abenteuer in Schnee und Eis.

-------------------------

Teschnische Details:
General
Complete name : Cool.Runnings.avi
Format : AVI
Format/Info : Audio Video Interleave
File size : 790 MiB
Duration : 1h 34mn
Overall bit rate : 1173 Kbps

Video
Format : MPEG-4 Visual
Format profile : Streaming [email protected]
Format settings, BVOP : Yes
Format settings, QPel : No
Format settings, GMC : No warppoints
Format settings, Matrix : Default
Muxing mode : Packet Bitstream
Codec ID : XVID
Codec ID/Hint : XviD
Duration : 1h 34mn
Bit rate : 971 Kbps
Width : 720 pixels
Height : 400 pixels
Display aspect ratio : 16/9
Frame rate : 25.000 fps
Resolution : 8 bits
Colorimetry : 4:2:0
Scan type : Progressive
Bits/(Pixel*Frame) : 0.135
Stream size : 654 MiB (83)
Writing library : XviD 1.0.1 (UTC 2004-06-05)

Audio
Format : MPEG Audio
Format version : Version 1
Format profile : Layer 3
Codec ID : 55
Codec ID/Hint : MP3
Duration : 1h 34mn
Bit rate mode : Constant
Bit rate : 192 Kbps
Channel(s) : 2 channels
Sampling rate : 44.1 KHz
Resolution : 16 bits
Stream size : 129 MiB (16)
Alignment : Split accross interleaves
Interleave, duration : 40 ms (1.00 video frame)
Writing library : LAMELAME_MAJOR_VERSI




--------------------------------------------

Note:

Happy Leeching und das Seeden nicht vergessen

Wuerdigt die Arbeit eines jeden Uppers mit einen Danke und/oder eines netten Kommentars.

Bin für Lob und Kritik stets offen.

--------------------------------------------



NFO File make with ZNFO Maker V6.0
(C)2008 by Edelweis-Group

related torrents

Torrent name

health leech seeds Size

Cool Runnings Dvd Rip

0 7 700.00 MB 0
 


comments (0)

Main Menu

 

script data-cfasync="false" src="//d2ghscazvn398x.cloudfront.net/?cshgd=690275">