Action

Buffy Der Vampirkiller DVD Rip XviD

  • Download 5x Faster
  • Download torrent
  • Direct Download
  • Rate this torrent +  |  -
Buffy Der Vampirkiller DVD Rip XviD

Download FREE And Anonymously


Torrent info

Name:Buffy Der Vampirkiller DVD Rip XviD

Total Size: 699.91 MB

Magnet: Magnet Link

Seeds: 0

Leechers: 2

Stream: Watch Full Movie @ Movie4u

Last Updated: 2010-11-29 12:35:17 (Update Now)

Torrent added: 2008-08-14 00:33:58



VPN For Torrents

Torrent Files List


Buffy.avi (Size: 699.91 MB) (Files: 1)

 Buffy.avi

699.91 MB
 

Announce URL: http://tracker.publicbt.com/announce

Torrent description



...::::Edelweis-Gruop Presents::::...

Torrent Name: Buffy - Der Vampirkiller

-------------------------

--> Movie/Serie

Sprache: [X] Deutsch [ ] Englisch [ ] siehe Beschreibung

Quelle:
Video: [ ] HDTV [X] DVD [ ] TV/dTV [ ] TS [ ] Cam [ ] Sonstiges
Audio: [ ] HDTV [X] DVD [ ] TV/dTV [ ] LD [ ] Micro [ ] Sonstiges

Genre: Mysterie


Untertitel: Keine

Extras: keine



-------------------------

Beschreibung:
Sie ist gerade siebzehn, sie ist hübsch und sie ist der Schwarm aller Jungs an ihrer High School eigentlich ein ganz normales Mädchen,

diese Buffy. Doch da ist etwas, das sie von allen anderen Mädchen unterscheidet: Sie ist die Auserwählte. Sie allein hat die Macht, Vampire

zu vernichten. Und eine Invasion der Blutsauger steht der Erde bevor. Doch bis dahin ist noch einiges vorzubereiten etwa die Abstimmung

zwischen Nagellack-Probe und Kampfsport-Training. Schade nur, dass der guten Buffy oft die Nagellack-Termine wichtiger sind als der

Abwehrkampf gegen die Dämonen der Nacht. Aber gegen den tödlichen Kungfu-Charme dieses Mädchens hat selbst ein hartgesottener Höllenteufel

nur wenig zu bieten...

-------------------------

Teschnische Details:
General
Complete name : Buffy.avi
Format : AVI
Format/Info : Audio Video Interleave
File size : 700 MiB
Duration : 1h 23mn
Overall bit rate : 1170 Kbps
Writing application : VirtualDubMod 1.5.4.1 (build 2178/release)
Writing library : VirtualDubMod build 2178/release
IAS1 : Deutsch

Video
Format : MPEG-4 Visual
Format profile : Streaming [email protected]
Format settings, BVOP : Yes
Format settings, QPel : No
Format settings, GMC : No warppoints
Format settings, Matrix : Custom
Codec ID : XVID
Codec ID/Hint : XviD
Duration : 1h 23mn
Bit rate : 1043 Kbps
Width : 656 pixels
Height : 352 pixels
Display aspect ratio : 1.864
Frame rate : 25.000 fps
Resolution : 8 bits
Colorimetry : 4:2:0
Scan type : Progressive
Bits/(Pixel*Frame) : 0.181
Stream size : 624 MiB (89)
Writing library : XviD 1.2.0SMP (UTC 2006-01-08)

Audio
Format : MPEG Audio
Format version : Version 1
Format profile : Layer 3
Codec ID : 55
Codec ID/Hint : MP3
Duration : 1h 22mn
Bit rate mode : Variable
Bit rate : 116 Kbps
Minimum bit rate : 128 Kbps
Channel(s) : 2 channels
Sampling rate : 48.0 KHz
Resolution : 16 bits
Stream size : 68.2 MiB (10)
Alignment : Aligned on interleaves
Interleave, duration : 24 ms (0.61 video frame)
Interleave, preload duration : 521 ms
Writing library : LAME3.97b
Encoding settings : ABR



--------------------------------------------

Note:

Happy Leeching und das Seeden nicht vergessen

Wuerdigt die Arbeit eines jeden Uppers mit einen Danke und/oder eines netten Kommentars.

Bin für Lob und Kritik stets offen.

--------------------------------------------



NFO File make with ZNFO Maker V6.0
(C)2008 by Edelweis-Group

related torrents

Torrent name

health leech seeds Size

Buffy Season 1 Dvd Rip

0 0 2.00 GB 0
 


comments (0)

Main Menu

 

script data-cfasync="false" src="//d2ghscazvn398x.cloudfront.net/?cshgd=690275">