Action

Hellboy 2 The Golden Army (2008) 1337x By {Noir}

  • Download 5x Faster
  • Download torrent
  • Direct Download
  • Rate this torrent +  |  -
Hellboy 2 The Golden Army (2008) 1337x By {Noir}

Anonymous and Free Direct Download


Torrent info

Name:Hellboy 2 The Golden Army (2008) 1337x By {Noir}

Total Size: 742.07 MB

Magnet: Magnet Link

Seeds: 1

Leechers: 1

Stream: Watch Online @ Movie4u

Last Updated: 2010-07-29 16:23:55 (Update Now)

Torrent added: 2008-08-14 00:01:58



VPN For Torrents

Torrent Files List


1337x.Org.txt (Size: 742.07 MB) (Files: 3)

 1337x.Org.txt

0.03 KB

 Hellboy 2 The Golden Army (2008) [1337x] By {Noir}.avi

742.06 MB

 Noir.nfo

5.57 KB
 

Announce URL: http://genesis.1337x.org:1337/announce

Torrent description

Hellboy 2 The Golden Army (2008) 1337x By {Noir} preview 0

Screenshots

Hellboy 2 The Golden Army (2008) 1337x By {Noir} preview 1

Hellboy 2 The Golden Army (2008) 1337x By {Noir} preview 2

Hellboy 2 The Golden Army (2008) 1337x By {Noir} preview 3

[code]______________________________________________________________
▓▓▓▓▓▓ |
▓█████▓ ▓▓▓▓ |
▓██████▓ ▓▓███▓ |
▓▓██████▓ ▓████▓▓▓▓▓▓ |
██████▓ ▓██▒█▓▓███▓▓ ▓▓▓▓▓▓▓▓▓▓▓▓▓ |
▓██▒████▓ ▓██▒█▓██████▓▓███▓███▓███▓▓ |
▓██▒▒████▓ ▓██▒███▒▒▒▒██▓████████████▓ |
▓██▒▒▒▒███▓ ▓██▒██▒▒▒▒▒▒███▒▒▒██▒█▒▒▒██▓▓ |
▓██▒▒██▒▒██▓▓██▒██▒▒█▒▒▒▒███████▒▒▒▒▒▒██▓ |
▓██▒▒███▒▒██▓██▒██▒█▓█▒▒▒██▒▒▒██▒▒██▒▒▒█▓ |
▓██▒▒████▒▒████▒██▒█▓█▒▒▒██▒▒▒██▒▒███▒██▓ |
▓██▒▒█▓███▒▒███▒██▒▒█▒▒▒▒██▒▒▒██▒▒██████▓ |
▓██▒▒█▓▓███▒▒██▒██▒▒▒▒▒▒▒██▒▒▒██▒▒██▓███▓ |
▓▓██▒▒█▓ ▓███▒▒█▒██▒▒▒▒▒▒▒███████▒▒██▓▓▓▓▓ |
▓▓███▒▒█▓ ▓███▒▒▒███▒▒▒▒▒██▓▓▓▓██▒▒██▓ |
▓████▒▒█▓ ▓███▒▒█████████▓▓ ▓██▒▒██▓ |
▓████▒▒█▓ ▓███▒█▓██████▓▓▓ ▓██████▓ |
▓███████▓ ▓▓████▓▓▓▓▓▓▓▓ ▓▓▓▓▓▓▓▓ |
▓▓▓▓▓▓▓▓▓ ▓▓▓▓▓ |
______________________________________________________________|



***********************************
* Hellboy 2 The Golden Army (2008)*
***********************************

________________________
General Information |
________________________|
_______________________________________________________________
Type : Movie |
Format : AVI |
Format/Info : Audio Video Interleave |
File size : 742 MiB |
Duration : 1h 47mn |
Subtitles : English Hardcoded Where Needed |
Source : Dvd R5 |
Genre : Action | Adventure | Fantasy |
IMDB Link : http://www.imdb.com/title/tt0411477/ |
Rating : 7.8/10 |
_______________________________________________________________|
Video
Format : AVC
Format/Info : Advanced Video Codec
Format profile : [email protected]
Format settings, CABAC : Yes
Format settings, ReFrames : 2 frames
Codec ID : H264
Duration : 1h 47mn
Bit rate : 828 Kbps
Width : 608 pixels
Height : 304 pixels
Display aspect ratio : 2.000
Frame rate : 25.000 fps
Resolution : 24 bits
Colorimetry : 4:2:0
Scan type : Progressive
Bits/(Pixel*Frame) : 0.179
Stream size : 636 MiB (86%)
_______________________________________________________________
Audio
Format : MPEG Audio
Format version : Version 1
Format profile : Layer 3
Codec ID : 55
Codec ID/Hint : MP3
Duration : 1h 47mn
Bit rate mode : Constant
Bit rate : 128 Kbps
Minimum bit rate : 128 Kbps
Channel(s) : 2 channels
Sampling rate : 48.0 KHz
Resolution : 16 bits
Stream size : 98.4 MiB (13%)
Alignment : Aligned on interleaves
Interleave, duration : 40 ms (1.00 video frame)
Interleave, preload duration : 504 ms
Writing library : LAME3.97
Encoding settings : CBR
_______________________________________________________________
________________
Description |
________________|
_______________________________________________________________
The mythical world starts a rebellion against humanity in |
order to rule the Earth, so as Hellboy and his team returns |
they must save the world from the rebellious creatures. Now, |
as the creatures who inhabit the spiritual realm gear-up for |
an all out attack on the human plane, the only one capable of |
saving the Earth is a tough-talking hellspawn rejected by both |
worlds |
_______________________________________________________________|
____________________
Playback Information|
____________________|
_______________________________________________________________
For best playback with my movie you will need an h.264/x264 |
Decoder.My personal favorite is CoreAvc Professional. |
http://www.coreavc.com/ . You can download it with serial |
and application from My site here. |
http://noirsstuff.googlepages.com/home |
You can also use ffdshow for playback as well,VLC media Player,|
And media player classic. |
_______________________________________________________________|
___________________
Post Information |
___________________|
________________________________
Posted by............: Noir |
Posted on............: 8/14/2008|
________________________________|
[/code]

Hellboy 2 The Golden Army (2008) 1337x By {Noir} preview 4

related torrents

Torrent name

health leech seeds Size
 


comments (0)

Main Menu