Thriller

DECEPTION DEWSTRR

  • Download 5x Faster
  • Download torrent
  • Direct Download
  • Rate this torrent +  |  -
DECEPTION DEWSTRR

Free and Direct Download with Usenet.nl 300GB+ free


Torrent info

Name:DECEPTION DEWSTRR

Total Size: 1.18 GB

Magnet: Magnet Link

Seeds: 0

Leechers: 0

Stream: Watch Online @ Movie4u

Last Updated: 2009-12-02 19:01:55 (Update Now)

Torrent added: 2009-08-29 20:29:40





Torrent Files List


DECEPTION 1.jpg (Size: 1.18 GB) (Files: 11)

 DECEPTION 1.jpg

23.32 KB

 DECEPTION 2.jpg

19.06 KB

 DECEPTION 3.jpg

20.92 KB

 DECEPTION 4.jpg

25.03 KB

 DECEPTION 5.jpg

15.72 KB

 DECEPTION 6.jpg

12.79 KB

 DECEPTION 7.jpg

17.44 KB

 DECEPTION 8.jpg

34.89 KB

 DECEPTION 9.jpg

20.05 KB

 DECEPTION.DEWSTRR.divx

1.18 GB

 Torrent_downloaded_from_Demonoid.com.txt

0.05 KB
 

Announce URL: http://inferno.demonoid.com:3407/announce

Torrent description

Movies : Thriller : DVD Rip : English
An accountant is introduced to a mysterious sex club known as The List by his lawyer friend. But in this new world, he soon becomes the prime suspect in a woman's disappearance and a multi-million dollar heist.

http://www.imdb.com/title/tt0800240/

Video
Format : MPEG-4 Visual
Format settings, BVOP : Yes
Format settings, QPel : No
Format settings, GMC : No warppoints
Format settings, Matrix : Default
Codec ID : DX50
Codec ID/Hint : DivX 5
Duration : 1h 42mn
Bit rate : 1 500 Kbps
Width : 640 pixels
Height : 480 pixels
Display aspect ratio : 4/3
Frame rate : 25.000 fps
Resolution : 24 bits
Colorimetry : 4:2:0
Scan type : Progressive
Bits/(Pixel*Frame) : 0.195
Stream size : 1.08 GiB (92%)
Title : Video
Writing library : DivX 6.8.2 (UTC 2008-05-17)

Audio
Format : MPEG Audio
Format version : Version 1
Format profile : Layer 3
Codec ID : 55
Codec ID/Hint : MP3
Duration : 1h 42mn
Bit rate mode : Constant
Bit rate : 128 Kbps
Channel(s) : 2 channels
Sampling rate : 48.0 KHz
Resolution : 16 bits
Stream size : 94.2 MiB (8%)
Alignment : Split accross interleaves
Interleave, duration : 40 ms (1.00 video frame)
Interleave, preload duration : 500 ms
Title : Audio

General
Complete name : DECEPTION.DEWSTRR\Torrent_downloaded_from_Demonoid.com.txt
File size : 47.0 Bytes

Image
Format : JPEG
Width : 619 pixels
Height : 280 pixels
Resolution : 24 bits
Image
Format : JPEG
Width : 637 pixels
Height : 271 pixels
Resolution : 24 bits
Image
Format : JPEG
Width : 640 pixels
Height : 268 pixels
Resolution : 24 bits
Image
Format : JPEG
Width : 642 pixels
Height : 270 pixels
Resolution : 24 bits
Image
Format : JPEG
Width : 622 pixels
Height : 286 pixels
Resolution : 24 bits
Image
Format : JPEG
Width : 625 pixels
Height : 268 pixels
Resolution : 24 bits
Image
Format : JPEG
Width : 629 pixels
Height : 265 pixels
Resolution : 24 bits
Image
Format : JPEG
Width : 629 pixels
Height : 272 pixels
Resolution : 24 bits
Image
Format : JPEG
Width : 636 pixels
Height : 263 pixels
Resolution : 24 bits

related torrents

Torrent name

health leech seeds Size

THE 13TH WARRIOR DEWSTRR

5 11 1.09 GB 0
 

comments (0)

Main Menu