Thriller

Dead Ringers 1988 CRITERION DVDRip XviD KARiNA

  • Download 5x Faster
  • Download torrent
  • Direct Download
  • Rate this torrent +  |  -
Dead Ringers 1988 CRITERION DVDRip XviD KARiNA

Free and Direct Download with Usenet 300GB+ free


Torrent info

Name:Dead Ringers 1988 CRITERION DVDRip XviD KARiNA

Total Size: 1.37 GB

Magnet: Magnet Link

Seeds: 1

Leechers: 2

Stream: Watch Online @ Movie4u

Last Updated: 2016-01-01 22:13:04 (Update Now)

Torrent added: 2009-08-29 20:25:09




Torrent Files List


dead.ringers.cd1-KARiNA.avi (Size: 1.37 GB) (Files: 4)

 dead.ringers.cd1-KARiNA.avi

712.59 MB

 dead.ringers.cd2-KARiNA.avi

691.70 MB

 dead.ringers-KARiNA.nfo

3.98 KB

 Torrent downloaded from Demonoid.com.txt

0.05 KB
 

tracker

leech seeds
 

Torrent description

888 d8P d8888 8888888b. d8b 888b 888 d8888
888 d8P d88888 888 Y88b Y8P 8888b 888 d88888
888 d8P d88P888 888 888 88888b 888 d88P888
888d88K d88P 888 888 d88P 888 888Y88b 888 d88P 888
8888888b d88P 888 8888888P" 888 888 Y88b888 d88P 888
888 Y88b d88P 888 888 T88b 888 888 Y88888 d88P 888
888 Y88b d8888888888 888 T88b 888 888 Y8888 d8888888888
888 Y88b d88P 888 888 T88b 888 888 Y888 d88P 888

Dead.Ringers.1988.CRITERION.DVDRip.XviD-KARiNA.avi

Synopsis.

Dead Ringers | Canada / USA | 1988 | Directed by David Cronenberg

In Dead Ringers, David Cronenberg tells the chilling story of identical
twin gynecologists—suave Elliot and sensitive Beverly, bipolar sides of
one personality—who share the same practice, the same apartment,
the same women. When a new patient, glamorous actress Claire
Niveau, challenges their eerie bond, they descend into a whirlpool of
sexual confusion, drugs, and madness. Jeremy Irons’ s tour-de-force
performance—as both twins—raises disturbing questions about the
nature of personal identity.

IMdB: http://www.imdb.com/title/tt0094964/ | Rating: 7.3 / 10 (11,058 votes)

General.

Complete name : Dead.Ringers.1988.CRITERION.DVDRip.XviD-KARiNA.avi
Format : AVI
File size : 1.37 GiB
Duration : 1h 55mn
Overall bit rate : 1 692 Kbps
Source : Criterion NTSC DVD9

Video.

Video
Format : MPEG-4 Visual
Codec ID : XVID
Codec ID/Hint : XviD
Duration : 1h 55mn
Bit rate : 1 538 Kbps
Width : 720 pixels
Height : 448 pixels
Display aspect ratio : 1.607
Frame rate : 23.976 fps
Resolution : 24 bits
Colorimetry : 4:2:0
Scan type : Progressive
Bits/(Pixel*Frame) : 0.199
Stream size : 1.24 GiB (91%)
Writing library : XviD 1.2.1

Audio.

Format : MPEG Audio
Bit rate mode : Variable
Bit rate : 141 Kbps
Nominal bit rate : 160 Kbps
Channel(s) : 2 channels
Sampling rate : 48.0 KHz
Resolution : 16 bits
Stream size : 117 MiB (8%)
Interleave, duration : 24 ms (0.58 video frame)
Interleave, preload duration : 130 ms
Writing library : LAME3.98r
Language : English

KARiNA

related torrents

Torrent name

health leech seeds Size

Dead Ringers (1988)

0 0 0.99 GB 0
 

comments (0)

Main Menu