Thriller

Crimson Rivers 2 Angels Of The Apocalypse, Xvid Whitevegeta

  • Download 5x Faster
  • Download torrent
  • Direct Download
  • Rate this torrent +  |  -
Crimson Rivers 2 Angels Of The Apocalypse, Xvid Whitevegeta

Free and Direct Download with Usenet 300GB+ free


Torrent info

Name:Crimson Rivers 2 Angels Of The Apocalypse, Xvid Whitevegeta

Total Size: 700.75 MB

Magnet: Magnet Link

Seeds: 0

Leechers: 0

Stream: Watch Online @ Movie4u

Last Updated: 0000-00-00 00:00:00 (Update Now)

Torrent added: 2009-08-29 20:14:27




Torrent Files List


Crimson_Rivers_2_back.jpg (Size: 700.75 MB) (Files: 6)

 Crimson_Rivers_2_back.jpg

260.06 KB

 Crimson_Rivers_2_cd.jpg

256.77 KB

 Crimson_Rivers_2_front.jpg

208.71 KB

 Les.Rivieres.Pourpres.2.FRENCH.DVDRip.XViD-FTS.avi

699.94 MB

 Les.Rivieres.Pourpres.2.FRENCH.DVDRip.XViD-FTS.srt

52.53 KB

 Les.Rivieres.Pourpres.2.FRENCH.DVDRip.XViD-FTS1.srt

52.14 KB
 

Announce URL:

Torrent description

With Dutch & English Subs

Video
Formaat : MPEG-4 Visual
Format profile : [email protected]
Format settings, BVOP : Ja
Format settings, QPel : Nee
Format settings, GMC : No warppoints
Format settings, Matrix : Default
Codec ID : XVID
Codec ID/Hint : XviD
Duration : 1h 35mn
Bitrate : 889 Kbps
Breedte : 640 pixels
Hoogte : 272 pixels
Beeldverhouding : 2.35
Framerate : 25,000 fps
Resolutie : 24 bits
Colorimetry : 4:2:0
Scan type : Progressive
Bits/(Pixel*Frame) : 0.204
Stream size : 604 MiB (86%)
Gebruikte encoder-bibliotheek : XviD 1.0.0 RC4 (Hola) (UTC 2004-04-05)

Audio
Formaat : MPEG Audio
Format version : Version 1
Format profile : Layer 3
Codec ID : 55
Codec ID/Hint : MP3
Duration : 1h 35mn
Bitrate-modus : Variable
Bitrate : 127 Kbps
Kanaal(en) : 2 kanalen
Samplerate : 48,0 KHz
Resolutie : 16 bits
Video vertraging : 8ms
Stream size : 86,7 MiB (12%)
Alignment : Aligned on interleaves
Interleave, duration : 24 ms (0,60 video frame)
Interleave, preload duration : 536 ms

related torrents

Torrent name

health leech seeds Size
 

comments (0)

Main Menu