Thriller

Common Wealth La Comunidad[2000]DvDrip[English and various subtitles]Spanish[Latino[DXO]

  • Download 5x Faster
  • Download torrent
  • Direct Download
  • Rate this torrent +  |  -

Torrent info

Name:Common Wealth La Comunidad[2000]DvDrip[English and various subtitles]Spanish[Latino[DXO]

Total Size: 702.68 MB

Magnet: Magnet Link

Seeds: 0

Leechers: 0

Stream: Watch Full Movie @ Movie4u

Last Updated: 2017-06-13 15:42:00 (Update Now)

Torrent added: 2009-08-29 20:09:17



VPN For Torrents

Torrent Files List


La Comunidad (2000) [DVDRip][Spanish][www.zonatorrent.com].avi (Size: 702.68 MB) (Files: 1)

 La Comunidad (2000) [DVDRip][Spanish][www.zonatorrent.com].avi

702.68 MB
 

Announce URL:

Torrent description

http://www.imdb.com/title/tt0255067/

Audio: Spanish
Subtitles: English, Portuguese, Bulgarian, German, French, Italian, Polish:

http://subscene.com/comunidad-la/subtitles-36062.aspx


User Rating: 7.2/10
Director: Álex de la Iglesia
Release Date: 29 September 2000 (Spain)
Genre: Comedy | Crime | Horror | Mystery | Thriller
Tagline: Una agente inmobiliaria con suerte... Un cadáver descompuesto... Una comunidad de vecinos codiciosos... 300 millones escondidos debajo de una baldosa... Algo huele a podrido en esta casa.
Plot: Julia finds 300 million pesetas hidden in a dead man's house while selling an apartment. She's a 40-ish...

Duration: 01:43:00.00, start: 0.000000, bitrate: 953 kb/s
Stream #0.0: Video: msmpeg4, yuv420p, 640x272, 25.00 tb(r)
Stream #0.1: Audio: mp3, 48000 Hz, stereo, s16, 96 kb/s

related torrents

Torrent name

health leech seeds Size
 


comments (0)

Main Menu

 

script data-cfasync="false" src="//d2ghscazvn398x.cloudfront.net/?cshgd=690275">