Rock

Billy Joel 52nd Street [Eac Flac Cue] (by Rock City)[colombo bt org]

  • Download 5x Faster
  • Download torrent
  • Direct Download
  • Rate this torrent +  |  -
Billy Joel 52nd Street [Eac Flac Cue] (by Rock City)[colombo bt org]

Free and Direct Download with Usenet 300GB+ free


Torrent info

Name:Billy Joel 52nd Street [Eac Flac Cue] (by Rock City)[colombo bt org]

Total Size: 256.52 MB

Magnet: Magnet Link

Seeds: 0

Leechers: 0

Stream: Watch Online @ Movie4u

Last Updated: 2013-10-17 21:38:35 (Update Now)

Torrent added: 2009-08-29 20:08:15




Torrent Files List


01 Big Shot.flac (Size: 256.52 MB) (Files: 16)

 01 Big Shot.flac

27.52 MB

 02 Honesty.flac

23.39 MB

 03 My Life.flac

31.14 MB

 04 Zanzibar.flac

33.10 MB

 05 Stiletto.flac

29.12 MB

 06 Rosalinda's Eyes.flac

26.17 MB

 07 Half A Mile Away.flac

28.83 MB

 08 Until The Night.flac

41.17 MB

 09 52nd Street.flac

14.46 MB

 52nd Street.cue

1.22 KB

 Back.jpg

586.50 KB

 Billy Joel - 52nd Street.ffp

0.58 KB

 Billy Joel - 52nd Street.log

4.09 KB

 Billy Joel - 52nd Street.m3u

0.51 KB

 Cd.jpg

376.78 KB

 Front.jpg

682.59 KB
 

Announce URL:

Torrent description

Billy Joel   52nd Street [Eac Flac Cue] (by Rock City)[colombo bt org] preview 0

Billy Joel   52nd Street [Eac Flac Cue] (by Rock City)[colombo bt org] preview 1

[size=24pt][color=blue][font=Verdana]BILLY JOEL[/font][/color][/size]
[size=20pt][color=blue][font=Verdana]52ND STREET[/font][/color][/size]

Billy Joel   52nd Street [Eac Flac Cue] (by Rock City)[colombo bt org] preview 2

http://image.blog.livedoor.jp/hyena_hyena/imgs/9/4/94f1a56b.jpeg

Billy Joel   52nd Street [Eac Flac Cue] (by Rock City)[colombo bt org] preview 3

[font=Verdana]Titolo:[/font] [color=maroon][font=Verdana]52nd Street[/font][/color]
[font=Verdana]Anno: [/font] [color=maroon][font=Verdana]1978[/font][/color]
[font=Verdana]Genere:[/font] [color=maroon][font=Verdana]Rock[/font][/color]
[font=Verdana]Edizione:[/font] [color=maroon][font=Verdana]Originale[/font][/color]
[font=Verdana]Formato:[/font] [color=maroon][font=Verdana]Flac - Level 8[/font][/color]
[font=Verdana]Fonte:[/font] [color=maroon][font=Verdana]Cd masterizzato dall'originale[/font][/color]
[color=blue][font=Verdana]Covers Incluse nel Torrent[/font][/color]

[code]Exact Audio Copy V0.99 prebeta 3 from 28. July 2007

EAC extraction logfile from 23. March 2008, 0:03

Billy Joel / 52nd Street

Used drive : HL-DT-STDVD-ROM GDR8164B Adapter: 1 ID: 1

Read mode : Secure
Utilize accurate stream : Yes
Defeat audio cache : Yes
Make use of C2 pointers : No

Read offset correction : 102
Overread into Lead-In and Lead-Out : No
Fill up missing offset samples with silence : Yes
Delete leading and trailing silent blocks : No
Null samples used in CRC calculations : Yes
Used interface : Installed external ASPI interface
Gap handling : Appended to previous track

Used output format : Internal WAV Routines
Sample format : 44.100 Hz; 16 Bit; Stereo


TOC of the extracted CD

Track | Start | Length | Start sector | End sector
---------------------------------------------------------
1 | 0:00.00 | 4:03.44 | 0 | 18268
2 | 4:03.44 | 3:53.51 | 18269 | 35794
3 | 7:57.20 | 4:44.03 | 35795 | 57097
4 | 12:41.23 | 5:13.08 | 57098 | 80580
5 | 17:54.31 | 4:42.24 | 80581 | 101754
6 | 22:36.55 | 4:41.73 | 101755 | 122902
7 | 27:18.53 | 4:08.61 | 122903 | 141563
8 | 31:27.39 | 6:35.36 | 141564 | 171224
9 | 38:03.00 | 2:32.18 | 171225 | 182642


Track 1

Filename C:\Documents and Settings\Saura\Desktop\Billy Joel - 52nd Street\01 Big Shot.wav

Pre-gap length 0:00:02.00

Peak level 99.8 %
Track quality 100.0 %
Test CRC B9116EA8
Copy CRC B9116EA8
Track not present in AccurateRip database
Copy OK

Track 2

Filename C:\Documents and Settings\Saura\Desktop\Billy Joel - 52nd Street\02 Honesty.wav

Peak level 99.8 %
Track quality 100.0 %
Test CRC 2C3068C1
Copy CRC 2C3068C1
Track not present in AccurateRip database
Copy OK

Track 3

Filename C:\Documents and Settings\Saura\Desktop\Billy Joel - 52nd Street\03 My Life.wav

Peak level 99.8 %
Track quality 100.0 %
Test CRC 9BC994BA
Copy CRC 9BC994BA
Track not present in AccurateRip database
Copy OK

Track 4

Filename C:\Documents and Settings\Saura\Desktop\Billy Joel - 52nd Street\04 Zanzibar.wav

Peak level 99.8 %
Track quality 100.0 %
Test CRC 83402264
Copy CRC 83402264
Track not present in AccurateRip database
Copy OK

Track 5

Filename C:\Documents and Settings\Saura\Desktop\Billy Joel - 52nd Street\05 Stiletto.wav

Peak level 99.8 %
Track quality 100.0 %
Test CRC 1BFC71F9
Copy CRC 1BFC71F9
Track not present in AccurateRip database
Copy OK

Track 6

Filename C:\Documents and Settings\Saura\Desktop\Billy Joel - 52nd Street\06 Rosalinda's Eyes.wav

Peak level 99.8 %
Track quality 100.0 %
Test CRC F4150623
Copy CRC F4150623
Track not present in AccurateRip database
Copy OK

Track 7

Filename C:\Documents and Settings\Saura\Desktop\Billy Joel - 52nd Street\07 Half A Mile Away.wav

Peak level 99.8 %
Track quality 100.0 %
Test CRC 39ECBE69
Copy CRC 39ECBE69
Track not present in AccurateRip database
Copy OK

Track 8

Filename C:\Documents and Settings\Saura\Desktop\Billy Joel - 52nd Street\08 Until The Night.wav

Peak level 99.8 %
Track quality 99.9 %
Test CRC 6D97DE6E
Copy CRC 6D97DE6E
Track not present in AccurateRip database
Copy OK

Track 9

Filename C:\Documents and Settings\Saura\Desktop\Billy Joel - 52nd Street\09 52nd Street.wav

Peak level 99.8 %
Track quality 100.0 %
Test CRC 303D91BB
Copy CRC 303D91BB
Track not present in AccurateRip database
Copy OK


None of the tracks are present in the AccurateRip database

No errors occurred

End of status report
[/code]

Billy Joel   52nd Street [Eac Flac Cue] (by Rock City)[colombo bt org] preview 4

Billy Joel   52nd Street [Eac Flac Cue] (by Rock City)[colombo bt org] preview 5

[font=Verdana][color=black]01.[/color] Big Shot
[color=black]02.[/color] Honesty
[color=black]03.[/color] My Life
[color=black]04.[/color] Zanzibar
[color=black]05.[/color] Stiletto
[color=black]06.[/color] Rosalinda's Eyes
[color=black]07.[/color] Half A Mile Away
[color=black]08.[/color] Until The Night
[color=black]09.[/color] 52nd Street
[/font]

Billy Joel   52nd Street [Eac Flac Cue] (by Rock City)[colombo bt org] preview 6

[font=Verdana][size=10pt]Il sogno di ogni grande artista è che la sua opera viva di vita propria e ciò vale anche per la musica pop che, a volte, regala piccoli capolavori di perfezione compositiva che, perdendo una connotazione temporale precisa, diventano degli “evergreen”, esattamente come “52nd Street”.
La fervida verve compositiva del pianista del Bronx trova in questo lavoro piena espressione arricchendosi di una maggiore levigatezza e raffinatezza stilistica senza rinunciare, per questo, all’energia e alla freschezza dimostrata delle sue precedenti prove discografiche. Nove pezzi, alcuni dei quali costituiti da ballad pianistiche, in cui è assai evidente l’ impostazione jazz dell’artista newyorchese, il tutto condito da melodie incancellabili e soavi e da una voce calda, che si accentua soprattutto nei bridge, punto di maggior forza dell’intero disco. Tali caratteristiche si notano particolarmente nel pezzo più rappresentativo dell’album: “Honesty”, delicato elogio all’amicizia, in cui si respira un’atmosfera soft e rilassante, sancita da una struttura armonica di ispirazione jazz e interrotta da un grintoso bridge in cui la vocalità ariosa di Joel si innalza sull’ensemble strumentale.
In altre occasioni, invece, il clima diviene rovente, quasi da jam session: è il caso di “Zanzibar” con tanto di assolo di tromba boppistico alla Clifford Brown e di “Stiletto” con il trascinante ostinato di piano e basso su cui si innesta un morbido tema del sax, o ancora gli echi rock di “Big Shot” con Steve Khan che imperversa alla chitarra con potenti power chords. Certamente, però, la specialità di Mr. Joel è quella di riempire la pista con i suoi rinomati “enti”, che sia il fervido sentimentalismo sognante di “Rosalinda’s Eyes”, o la latineggiante “Until The Night”, la qualità delle composizioni non mostra decadimenti, nemmeno nella title track finale dove, recuperando un puro blues feel, canta su un ritmo sincopato scandito di tamburi del fedele Liberty De Vitto.
Un album, in definitiva, che testimonia la sensibile genialità tecnica e compositiva di Joel contraddistinta da un pop raffinato, levigato da venature jazz ed arrangiamenti ben curati, degno del successo che i decenni a venire gli avrebbero continuato a tributare.

[color=teal][font=Verdana]Recensione a cura di DeBaser.it[/font][/color]

related torrents

Torrent name

health leech seeds Size
 

comments (0)

Main Menu