Thriller

Cold Creek Manor DIVX 2003 La Vela avi

  • Download 5x Faster
  • Download torrent
  • Direct Download
  • Rate this torrent +  |  -
Cold Creek Manor DIVX 2003 La Vela avi

Anonymous and Free Direct Download


Torrent info

Name:Cold Creek Manor DIVX 2003 La Vela avi

Total Size: 1.36 GB

Magnet: Magnet Link

Seeds: 0

Leechers: 0

Stream: Watch Online @ Movie4u

Last Updated: 2010-09-22 08:44:53 (Update Now)

Torrent added: 2009-08-29 20:07:58



VPN For Torrents

Torrent Files List


Cold Creek Manor.jpg (Size: 1.36 GB) (Files: 5)

 Cold Creek Manor.jpg

18.25 KB

 Cold.Creek.Manor.DIVX.2003.La.Vela.avi

1.36 GB

 Cold_Creek_Manor_R1-[cdcovers_cc]-front.jpg

395.12 KB

 Media.nfo

2.22 KB

 Thank You Info.txt

8.10 KB
 

Announce URL: http://open.tracker.thepiratebay.org/announce

Torrent description

Plot:

Wanting to escape city life for the countryside, New Yorkers Cooper Tilson (Quaid), his wife Leah (Stone) and their two children move into a dilapidated old mansion still filled with the possessions of the previous family. Turning it into their dream house soon becomes a living nightmare when the previous owner (Dorff) shows up, and a series of terrifying incidents lead them on a spine-tingling search for clues to the estate's dark and lurid past...



General


Complete name : Cold.Creek.Manor.DIVX.2003.La.Vela.avi

Imdb : http://www.imdb.com/title/tt0331468/
Language : English
Subtitles : N/A
Format : AVI
Format/Info : Audio Video Interleave
Format profile : OpenDML
File size : 1.36 GiB
Duration : 5h 25mn
Overall bit rate : 600 Kbps
Writing application : Lavf51.12.1

Video
Format : MPEG-4 Visual
Format profile : [email protected]
Format settings, BVOP : No
Format settings, QPel : No
Format settings, GMC : No warppoints
Format settings, Matrix : Default
Codec ID : DX50
Codec ID/Hint : DivX 5
Duration : 5h 25mn
Bit rate : 548 Kbps
Width : 720 pixels
Height : 480 pixels
Display aspect ratio : 1.500
Frame rate : 23.976 fps
Standard : NTSC
Resolution : 24 bits
Colorimetry : 4:2:0
Scan type : Progressive
Bits/(Pixel*Frame) : 0.066
Stream size : 1.24 GiB (91%)
Writing library : Lavc51.40.4

Audio
Format : MPEG Audio
Format version : Version 1
Format profile : Layer 3
Codec ID : 55
Codec ID/Hint : MP3
Duration : 1h 58mn
Bit rate mode : Constant
Bit rate : 128 Kbps
Channel(s) : 2 channels
Sampling rate : 48.0 KHz
Resolution : 16 bits
Stream size : 109 MiB (8%)
Alignment : Aligned on interleaves
Interleave, duration : 24 ms (0.58 video frame)
Interleave, preload duration : 24 ms
Writing library : LAME3.97

related torrents

Torrent name

health leech seeds Size
 


comments (0)

Main Menu