Thriller

Cape Fear 1991 Dvdrip nutEdave avi

  • Download 5x Faster
  • Download torrent
  • Direct Download
  • Rate this torrent +  |  -
Cape Fear 1991 Dvdrip nutEdave avi

Free and Direct Download with Usenet.nl 300GB+ free


Torrent info

Name:Cape Fear 1991 Dvdrip nutEdave avi

Total Size: 1.04 GB

Magnet: Magnet Link

Seeds: 0

Leechers: 0

Stream: Watch Online @ Movie4u

Last Updated: 2010-09-22 06:36:13 (Update Now)

Torrent added: 2009-08-29 19:53:58





Torrent Files List


Cape Fear - 1991 Dvdrip nutEdave.avi (Size: 1.04 GB) (Files: 1)

 Cape Fear - 1991 Dvdrip nutEdave.avi

1.04 GB
 

Announce URL: http://open.tracker.thepiratebay.org/announce

Torrent description

Cape Fear is a 1991 thriller film, directed by Martin Scorsese. It is a remake of the 1962 film of the same name and tells the story of a family man, a former public defender, whose family is threatened by a convicted rapist who wants vengeance for having been imprisoned for 14 years because of the lawyer's purposefully faulty defense tactics, prejudicing the accused. It received Academy Award nominations for Best Actor (Robert De Niro) and Best Supporting Actress (Juliette Lewis). The two were also nominated for Golden Globe Awards. General
Complete name : Cape Fear - 1991
Format : AVI
Format/Info : Audio Video Interleave
File size : 1.04 GiB
Duration : 2h 2mn
Overall bit rate : 1 216 Kbps

Video
Format : MPEG-4 Visual
Format profile : Streaming [email protected]
Format settings, BVOP : Yes
Format settings, QPel : No
Format settings, GMC : No warppoints
Format settings, Matrix : Default
Muxing mode : Packed bitstream
Codec ID : XVID
Codec ID/Hint : XviD
Duration : 2h 2mn
Bit rate : 1 014 Kbps
Width : 1 024 pixels
Height : 582 pixels
Display aspect ratio : 16/9
Frame rate : 25.000 fps
Resolution : 24 bits
Colorimetry : 4:2:0
Scan type : Progressive
Bits/(Pixel*Frame) : 0.068
Stream size : 888 MiB (83%)
Writing library : XviD 1.1.0 (UTC 2005-11-22)

Audio
Format : MPEG Audio
Format version : Version 1
Format profile : Layer 3
Codec ID : 55
Codec ID/Hint : MP3
Duration : 2h 2mn
Bit rate mode : Constant
Bit rate : 192 Kbps
Channel(s) : 2 channels
Sampling rate : 44.1 KHz
Resolution : 16 bits
Video delay : 26ms
Stream size : 168 MiB (16%)
Alignment : Split accross interleaves
Interleave, duration : 40 ms (1.00 video frame)
Title : Audio Stream Please seed after downloading

related torrents

Torrent name

health leech seeds Size
 

comments (0)

Main Menu