Thriller

Cape Fear 1962 DVDrip nutEdave avi

  • Download 5x Faster
  • Download torrent
  • Direct Download
  • Rate this torrent +  |  -
Cape Fear 1962 DVDrip nutEdave avi

Free and Direct Download with Usenet.nl 300GB+ free


Torrent info

Name:Cape Fear 1962 DVDrip nutEdave avi

Total Size: 991.38 MB

Magnet: Magnet Link

Seeds: 0

Leechers: 0

Stream: Watch Online @ Movie4u

Last Updated: 2015-04-04 01:03:26 (Update Now)

Torrent added: 2009-08-29 19:53:53





Torrent Files List


Cape Fear - 1962 DVDrip nutEdave.avi (Size: 991.38 MB) (Files: 1)

 Cape Fear - 1962 DVDrip nutEdave.avi

991.38 MB
 

Announce URL:

Torrent description

Cape Fear is a 1962 film about an attorney whose family is stalked by a criminal whom he helped to send to jail. It stars Gregory Peck, Robert Mitchum as Max Cady, Polly Bergen, Lori Martin, Martin Balsam, Jack Kruschen, Telly Savalas, Paul Comi and Barrie Chase. It was adapted by James R. Webb from the novel The Executioners by John D. MacDonald. It was directed by J. Lee Thompson, and released on April 12, 1962.
Cape Fear was remade in 1991. Peck, Mitchum and Balsam all appeared in the remake.
Carst
Gregory Peck ..... Sam Bowden
Robert Mitchum ... Max Cady
Polly Bergen ..... Peggy Bowden
Lori Martin ...... Nancy Bowden
Martin Balsam .... Police Chief Mark Dutton
Jack Kruschen .... Attorney Dave Grafton
Telly Savalas .... Private Detective Charles Sievers ` General
Complete name : Cape Fear - 1962
Format : AVI
Format/Info : Audio Video Interleave
File size : 991 MiB
Duration : 1h 41mn
Overall bit rate : 1 365 Kbps

Video
Format : MPEG-4 Visual
Format profile : Streaming [email protected]
Format settings, BVOP : Yes
Format settings, QPel : No
Format settings, GMC : No warppoints
Format settings, Matrix : Default
Muxing mode : Packed bitstream
Codec ID : XVID
Codec ID/Hint : XviD
Duration : 1h 41mn
Bit rate : 1 163 Kbps
Width : 1 024 pixels
Height : 582 pixels
Display aspect ratio : 16/9
Frame rate : 25.000 fps
Resolution : 24 bits
Colorimetry : 4:2:0
Scan type : Progressive
Bits/(Pixel*Frame) : 0.078
Stream size : 845 MiB (85%)
Writing library : XviD 1.1.0 (UTC 2005-11-22)

Audio
Format : MPEG Audio
Format version : Version 1
Format profile : Layer 3
Codec ID : 55
Codec ID/Hint : MP3
Duration : 1h 41mn
Bit rate mode : Constant
Bit rate : 192 Kbps
Channel(s) : 2 channels
Sampling rate : 44.1 KHz
Resolution : 16 bits
Video delay : 26ms
Stream size : 139 MiB (14%)
Alignment : Split accross interleaves
Interleave, duration : 40 ms (1.00 video frame)
Title : Audio Stream
Writing library : LAME3.92 Please seed after downloading.

related torrents

Torrent name

health leech seeds Size

Cape Fear 1962

0 0 799.75 MB 0
 

comments (0)

Main Menu