Rock

BECK BOGERT APPICE 1° (1973)(Repertoire 2005)[eac flac][colombo bt org]

  • Download 5x Faster
  • Download torrent
  • Direct Download
  • Rate this torrent +  |  -

Torrent info

Name:BECK BOGERT APPICE 1° (1973)(Repertoire 2005)[eac flac][colombo bt org]

Total Size: 309.91 MB

Magnet: Magnet Link

Seeds: 0

Leechers: 0

Stream: Watch Online @ Movie4u

Last Updated: 2016-10-19 02:22:54 (Update Now)

Torrent added: 2009-08-29 19:52:17



VPN For Torrents

Torrent Files List


BBA - 1973 (Repertoire 2005)[eac flac].ffp (Size: 309.91 MB) (Files: 19)

 BBA - 1973 (Repertoire 2005)[eac flac].ffp

0.72 KB

 BBA.txt

0.51 KB

 Beck Bogert & Appice.cue

2.03 KB

 Beck Bogert Appice - Beck Bogert & Appice.log

5.28 KB

 Beck Bogert Appice - Beck Bogert & Appice.m3u

0.79 KB

 copertine - artwork

  cd 328.jpg

760.25 KB

  fronteretro 327.jpg

2.13 MB

  interno 329.jpg

1.67 MB

 Flac

  01 Black Cat Moan.flac

26.67 MB

  02 Lady.flac

39.69 MB

  03 Oh To Love You.flac

27.41 MB

  04 Superstition.flac

30.57 MB

  05 Sweet Sweet Surrender.flac

25.71 MB

  06 Why Should I Care.flac

25.50 MB

  07 Lose Myself With You.flac

24.47 MB

  08 Livin' Alone.flac

28.90 MB

  09 I'm So Proud.flac

27.47 MB

  10 I'm So Proud (Single).flac

23.88 MB

  11 Lady (Single).flac

25.07 MB
 

tracker

leech seeds
 

Torrent description

BECK BOGERT APPICE   1° (1973)(Repertoire 2005)[eac flac][colombo bt org] preview 0

[color=blue][size=18pt]\"BECK BOGERT & APPICE - 1° (1973)[Eac Flac]\"[/size][/color]

BECK BOGERT APPICE   1° (1973)(Repertoire 2005)[eac flac][colombo bt org] preview 1

[color=blue][font=Verdana]TITOLO: BECK BOGERT & APPICE
ANNO: 1973
ETICHETTA: Repertoire
GENERE: Hard Rock
FORMATO: Flac Level 8
COPERTINE: sì (scansioni originali)
FONTE: CD originale
EDIZIONE: Repertoire 2005 / Epic Sony
[/font][/color]

[code]Exact Audio Copy V0.99 prebeta 3 from 28. July 2007

EAC extraction logfile from 21. May 2008, 20:29

Beck Bogert Appice / Beck Bogert & Appice

Used drive : PLEXTOR DVDR PX-800A Adapter: 1 ID: 0

Read mode : Secure
Utilize accurate stream : Yes
Defeat audio cache : Yes
Make use of C2 pointers : No

Read offset correction : 48
Overread into Lead-In and Lead-Out : No
Fill up missing offset samples with silence : Yes
Delete leading and trailing silent blocks : No
Null samples used in CRC calculations : No
Used interface : Installed external ASPI interface
Gap handling : Appended to previous track

Used output format : Internal WAV Routines
Sample format : 44.100 Hz; 16 Bit; Stereo


TOC of the extracted CD

Track | Start | Length | Start sector | End sector
---------------------------------------------------------
1 | 0:00.00 | 3:49.12 | 0 | 17186
2 | 3:49.12 | 5:34.25 | 17187 | 42261
3 | 9:23.37 | 4:05.36 | 42262 | 60672
4 | 13:28.73 | 4:18.52 | 60673 | 80074
5 | 17:47.50 | 4:00.54 | 80075 | 98128
6 | 21:48.29 | 3:33.29 | 98129 | 114132
7 | 25:21.58 | 3:19.65 | 114133 | 129122
8 | 28:41.48 | 4:12.26 | 129123 | 148048
9 | 32:53.74 | 4:12.52 | 148049 | 167000
10 | 37:06.51 | 3:25.06 | 167001 | 182381
11 | 40:31.57 | 3:50.62 | 182382 | 199693


Track 1

Filename C:\\Documents and Settings\\Stefano\\Desktop\\BBA - 1973 (Repertoire 2005)[eac flac]\\01 Black Cat Moan.wav

Pre-gap length 0:00:02.00

Peak level 98.8 %
Track quality 100.0 %
Test CRC 36749A19
Copy CRC 36749A19
Track not present in AccurateRip database
Copy OK

Track 2

Filename C:\\Documents and Settings\\Stefano\\Desktop\\BBA - 1973 (Repertoire 2005)[eac flac]\\02 Lady.wav

Pre-gap length 0:00:02.00

Peak level 98.8 %
Track quality 100.0 %
Test CRC FEBBB231
Copy CRC FEBBB231
Track not present in AccurateRip database
Copy OK

Track 3

Filename C:\\Documents and Settings\\Stefano\\Desktop\\BBA - 1973 (Repertoire 2005)[eac flac]\\03 Oh To Love You.wav

Pre-gap length 0:00:02.00

Peak level 98.8 %
Track quality 100.0 %
Test CRC DA174F7C
Copy CRC DA174F7C
Track not present in AccurateRip database
Copy OK

Track 4

Filename C:\\Documents and Settings\\Stefano\\Desktop\\BBA - 1973 (Repertoire 2005)[eac flac]\\04 Superstition.wav

Pre-gap length 0:00:02.00

Peak level 98.8 %
Track quality 100.0 %
Test CRC 789968B4
Copy CRC 789968B4
Track not present in AccurateRip database
Copy OK

Track 5

Filename C:\\Documents and Settings\\Stefano\\Desktop\\BBA - 1973 (Repertoire 2005)[eac flac]\\05 Sweet Sweet Surrender.wav

Pre-gap length 0:00:02.00

Peak level 98.8 %
Track quality 99.9 %
Test CRC 20EF7E23
Copy CRC 20EF7E23
Track not present in AccurateRip database
Copy OK

Track 6

Filename C:\\Documents and Settings\\Stefano\\Desktop\\BBA - 1973 (Repertoire 2005)[eac flac]\\06 Why Should I Care.wav

Pre-gap length 0:00:02.00

Peak level 98.8 %
Track quality 100.0 %
Test CRC 66C73E76
Copy CRC 66C73E76
Track not present in AccurateRip database
Copy OK

Track 7

Filename C:\\Documents and Settings\\Stefano\\Desktop\\BBA - 1973 (Repertoire 2005)[eac flac]\\07 Lose Myself With You.wav

Pre-gap length 0:00:02.00

Peak level 98.8 %
Track quality 100.0 %
Test CRC 89591EEB
Copy CRC 89591EEB
Track not present in AccurateRip database
Copy OK

Track 8

Filename C:\\Documents and Settings\\Stefano\\Desktop\\BBA - 1973 (Repertoire 2005)[eac flac]\\08 Livin\' Alone.wav

Pre-gap length 0:00:02.00

Peak level 98.8 %
Track quality 99.9 %
Test CRC D918F321
Copy CRC D918F321
Track not present in AccurateRip database
Copy OK

Track 9

Filename C:\\Documents and Settings\\Stefano\\Desktop\\BBA - 1973 (Repertoire 2005)[eac flac]\\09 I\'m So Proud.wav

Peak level 98.8 %
Track quality 99.9 %
Test CRC B5F939AA
Copy CRC B5F939AA
Track not present in AccurateRip database
Copy OK

Track 10

Filename C:\\Documents and Settings\\Stefano\\Desktop\\BBA - 1973 (Repertoire 2005)[eac flac]\\10 I\'m So Proud (Single).wav

Pre-gap length 0:00:02.00

Peak level 100.0 %
Track quality 100.0 %
Test CRC 6FA885CA
Copy CRC 6FA885CA
Track not present in AccurateRip database
Copy OK

Track 11

Filename C:\\Documents and Settings\\Stefano\\Desktop\\BBA - 1973 (Repertoire 2005)[eac flac]\\11 Lady (Single).wav

Pre-gap length 0:00:02.00

Peak level 98.8 %
Track quality 100.0 %
Test CRC 9354B527
Copy CRC 9354B527
Track not present in AccurateRip database
Copy OK


None of the tracks are present in the AccurateRip database

No errors occurred

End of status report
[/code]

BECK BOGERT APPICE   1° (1973)(Repertoire 2005)[eac flac][colombo bt org] preview 2

[color=blue]
01.black cat moon
02.lady
03.oh to love you
04.superstition
05.sweet sweet surrender
06.why should i care
07.lose myself with you
08.livin\' alone
09.i\'m so proud

BONUS TRACKS

10.i\'m so proud (single version)
11.lady (single version)
[/color]

BECK BOGERT APPICE   1° (1973)(Repertoire 2005)[eac flac][colombo bt org] preview 3

BECK BOGERT APPICE   1° (1973)(Repertoire 2005)[eac flac][colombo bt org] preview 4

[font=Verdana]
La sezione ritmica dei VANILLA FUDGE, ovvero CARMINE APPICE e TIM BOGERT nel
1969 visto il clamoroso successo che stavano avendo i LED ZEPPELIN, decise di formare una band che potesse rivaleggiare con il dirigibile di piombo, e si accordò con JEFF BECK e ROD STEWART.
Il chitarrista inglese però ebbe un incidente che lo costrinse a stare lontano dalle scene per un po’, così APPICE e BOGERT optarono per il chitarrista JIM MCCARTY e il cantante RUSTY DAY e formarono i CACTUS.

Il gruppo si sciolse nel 1972 per permettere a APPICE e BOGERT di riunirsi finalmente con BECK (Stewart ormai era con i FACES). Nel 1973 pubblicarono il loro unico disco da studio (sebbene ne preparano un secondo mai pubblicato ma disponibile come bootleg col titolo di WORKING VERSION) a cui si aggiunse solo per il mercato giapponese il leggendario LIVE.
Il loro omonimo primo disco contiene SUPERSTITION scritto per l’occasione da STEVIE WONDER, brano interpretato in chiave hard rock dal trio in questione. Gli altri pezzi non fanno sognare come ci si potrebbe attendere, ma il lignaggio dei musicisti in questione rende questo album comunque interessante.

(note di nonantolaslim maggio08)
[/font]

[url=BECK BOGERT APPICE   1° (1973)(Repertoire 2005)[eac flac][colombo bt org] preview 5

[font=Verdana]SEED:
in up da subito
weekend 24/24 tranne imprevisti
giorni feriali dalle 20 alle 8
in seed fino a 10 completati
banda 20/40 kbs[/font]

related torrents

Torrent name

health leech seeds Size
 


comments (0)

Main Menu