Thriller

Blink (1994)

  • Download 5x Faster
  • Download torrent
  • Direct Download
  • Rate this torrent +  |  -
Blink (1994)

Free and Direct Download with Usenet 300GB+ free


Torrent info

Name:Blink (1994)

Total Size: 695.09 MB

Magnet: Magnet Link

Seeds: 0

Leechers: 0

Stream: Watch Online @ Movie4u

Last Updated: 0000-00-00 00:00:00 (Update Now)

Torrent added: 2009-08-29 19:41:03




Torrent Files List


Blink (1994) Madeleine Stowe + Aidan Quinn (DVDrip).avi (Size: 695.09 MB) (Files: 1)

 Blink (1994) Madeleine Stowe + Aidan Quinn (DVDrip).avi

695.09 MB
 

Announce URL:

Torrent description

Blink (1994)

Madeleine Stowe as a blind violin player who regains her sight in the middle of the investigation of a serial rapist killer.

Widescreen 560x240, XviD, good stereo.
Burn tested, runs well in both my standalone DivX players.


Format/Info : Audio Video Interleave
File size : 695 MiB
Duration : 1h 41mn
Overal bit rate : 956 Kbps
Writing application : VirtualDubMod 1.5.10.2 (build 2540/release)
Writing library : VirtualDubMod build 2540/release

Video
Format : MPEG-4 Visual
Format profile : Streaming [email protected]
Format settings, BVOP : Yes
Format settings, QPel : No
Format settings, GMC : No warppoints
Format settings, Matrix : Default
Muxing mode : Packet Bitstream
Codec ID : XVID
Codec ID/Hint : XviD
Duration : 1h 41mn
Bit rate : 835 Kbps
Width : 560 pixels
Height : 240 pixels
Display aspect ratio : 2.35
Frame rate : 25.000 fps
Resolution : 8 bits
Colorimetry : 4:2:0
Scan type : Progressive
Bits/(Pixel*Frame) : 0.248
Stream size : 607 MiB
Writing library : XviD 1.1.0 (UTC 2005-11-22)

Audio
Format : MPEG Audio
Format version : Version 1
Format profile : Layer 3
Codec ID : 55
Codec ID/Hint : MP3
Duration : 1h 41mn
Bit rate mode : Variable
Bit rate : 109 Kbps
Nominal bit rate : 112 Kbps
Channel(s) : 2 channels
Sampling rate : 44.1 KHz
Resolution : 16 bits
Stream size : 78.9 MiB
Writing library : LAME3.90.
Encoding settings : ABR

Thanks to the uploader & keep it seeding!

related torrents

Torrent name

health leech seeds Size

Blink 182 Buddha 1994

11 1 73.43 MB 0
 

comments (0)

Main Menu