Thriller

Awake[2009]DvDrip LW [Bit Byte]

  • Download 5x Faster
  • Download torrent
  • Direct Download
  • Rate this torrent +  |  -
Awake[2009]DvDrip LW [Bit Byte]

Free and Direct Download with Usenet.nl 300GB+ free


Torrent info

Name:Awake[2009]DvDrip LW [Bit Byte]

Total Size: 697.56 MB

Magnet: Magnet Link

Seeds: 9

Leechers: 0

Stream: Watch Online @ Movie4u

Last Updated: 2011-06-11 08:10:00 (Update Now)

Torrent added: 2009-08-29 19:30:19





Torrent Files List


Covers (Size: 697.56 MB) (Files: 7)

 Covers

  Cover.jpg

52.50 KB

  DvD Cover.jpg

42.05 KB

 Info

  Movie Info.nfo

4.18 KB

  Movie Info.txt

3.03 KB

 Movie

  Awake[2009]DvDrip-LW.avi

697.46 MB

 Trackers

  Torrent_downloaded_from_Demonoid.com.txt

0.05 KB

  tracked_by_h33t_com.txt

0.02 KB
 

Announce URL: http://www.h33t.com:3310/announce

Torrent description

ßßßßßßßßßßßßßßßßßßßßßßßßßßßßßßßßßßßßßßßßßßßßßßßßßßßßßßßßßßßßßßßßßßßßßß

Û°°°°°°°°°°°°°°°°°°°°°°Û
ÛÛ Awake[2009]DvDrip-LW ÛÛ
Û°°°°°°°°°°°°°°°°°°°°°°Û

File Name : Awake[2009]DvDrip-LW
Store Date : 2007
Type : Movie
Format : AVI
File Size : 697 Mb
Duration : 01:24:07
Language : English
Source : DvD
Subtitles : None
Genre : Crime | Thriller
IMDB Link : http://www.imdb.com/title/tt0211933/
IMDB Rating : 6.5/10
IMDB Votes : 20,911 Votes
ÜÜÜÜÜÜÜÜÜÜÜÜÜÜÜÜÜÜÜÜÜÜÜÜÜÜÜÜÜÜÜÜÜÜÜÜÜÜÜÜÜÜÜÜÜÜÜÜÜÜÜÜÜÜÜÜÜÜÜÜÜÜÜÜÜÜÜÜÜÜ

Û°°°°°°°°°°°°°°°°°°°°°°°°Û
ÛÛ Video Info ÛÛ
Û°°°°°°°°°°°°°°°°°°°°°°°°Û

Format : MPEG-4 Visual
Format profile : Streaming [email protected]
Format settings, BVOP : Yes
Format settings, QPel : No
Format settings, GMC : No warppoints
Format settings, Matrix : Custom
Codec ID : XVID
Codec ID/Hint : XviD
Duration : 1h 24mn
Bit rate : 960 Kbps
Width : 640 pixels
Height : 272 pixels
Display aspect ratio : 2.35
Frame rate : 23.976 fps
Resolution : 24 bits
Colorimetry : 4:2:0
Scan type : Progressive
Bits/(Pixel*Frame) : 0.230
Stream size : 578 MiB (83%)
Writing library : XviD 1.2.1
ÜÜÜÜÜÜÜÜÜÜÜÜÜÜÜÜÜÜÜÜÜÜÜÜÜÜÜÜÜÜÜÜÜÜÜÜÜÜÜÜÜÜÜÜÜÜÜÜÜÜÜÜÜÜÜÜÜÜÜÜÜÜÜÜÜÜÜÜÜÜ

Û°°°°°°°°°°°°°°°°°°°°°°°°Û
ÛÛ Sound Info ÛÛ
Û°°°°°°°°°°°°°°°°°°°°°°°°Û

Format : MPEG Audio
Format version : Version 1
Format profile : Layer 3
Codec ID : 55
Codec ID/Hint : MP3
Duration : 1h 24mn
Bit rate mode : Constant
Bit rate : 192 Kbps
Minimum bit rate : 192 Kbps
Channel(s) : 2 channels
Sampling rate : 48.0 KHz
Resolution : 16 bits
Stream size : 116 MiB (17%)
Alignment : Aligned on interleaves
Interleave, duration : 83 ms (2.00 video frames)
Interleave, preload duration : 504 ms
Writing library : LAME3.98r
Encoding settings : CBR
ÜÜÜÜÜÜÜÜÜÜÜÜÜÜÜÜÜÜÜÜÜÜÜÜÜÜÜÜÜÜÜÜÜÜÜÜÜÜÜÜÜÜÜÜÜÜÜÜÜÜÜÜÜÜÜÜÜÜÜÜÜÜÜÜÜÜÜÜÜÜ

Û°°°°°°°°°°°°°°°°°°°°°°°°Û
ÛÛ Plot ÛÛ
Û°°°°°°°°°°°°°°°°°°°°°°°°Û

While undergoing a heart transplant, Clay (Hayden
Christensen) experiences "anesthetic awareness,"
a condition that allows him to see and feel everything
that's happening to him but leaves him paralyzed
and unable to do anything about it. From his unique
and painful vantage point, Clay learns troubling
truths about his young wife (Jessica Alba) as she
struggles with her own demons. Terrence Howard and
Lena Olin co-star.

Starring: Hayden Christensen, Lena Olin

Director: Joby Harold
ÜÜÜÜÜÜÜÜÜÜÜÜÜÜÜÜÜÜÜÜÜÜÜÜÜÜÜÜÜÜÜÜÜÜÜÜÜÜÜÜÜÜÜÜÜÜÜÜÜÜÜÜÜÜÜÜÜÜÜÜÜÜÜÜÜÜÜÜÜÜ

related torrents

Torrent name

health leech seeds Size
 

comments (0)

Main Menu