Thriller

Autopsy mp4 maddog82

  • Download 5x Faster
  • Download torrent
  • Direct Download
  • Rate this torrent +  |  -
Autopsy mp4 maddog82

Anonymous and Free Direct Download 300GB+


Torrent info

Name:Autopsy mp4 maddog82

Total Size: 402.95 MB

Magnet: Magnet Link

Seeds: 0

Leechers: 0

Stream: Watch Online @ Movie4u

Last Updated: 2010-02-25 00:02:42 (Update Now)

Torrent added: 2009-08-29 19:28:55



VPN For Torrents

Torrent Files List


Autopsy mp4.mp4 (Size: 402.95 MB) (Files: 1)

 Autopsy mp4.mp4

402.95 MB
 

Announce URL: http://tracker.thepiratebay.org:80/announce

Torrent description

" AUTOPSY MP4 " (2008)

Emily Johnson, her boyfriend Bobby and their friends Clare and Jude are recent college grads driving cross-country, taking a last vacation together before they face the "real" world. An accident leaves them hurt and stranded on a lonely Louisiana road. When the ambulance arrives, it whisks them to Mercy Hospital. With a minimal staff and many of its floors empty, the hospital is an eerie place--but that's only the beginning.

The staff is conducting inhuman experiments on helpless patients under the instruction of Dr. Benway, a direct descendant of the infamous New Orleans family that committed atrocities in the 19th century. bizzare and dangerous hospital.

Format : MPEG-4
Format profile : Base Media
Codec ID : isom
File size : 403 MiB
Duration : 1h 24mn
Overall bit rate : 665 Kbps
Writing application : ZJMEDIA MP4/3GP/MOV Encoder v1.0
Comment : QuickTime 6.0 or greater

Video
ID : 1
Format : MPEG-4 Visual
Format profile : [email protected]
Format settings, BVOP : No
Format settings, QPel : No
Format settings, GMC : No warppoints
Format settings, Matrix : Default (H.263)
Codec ID : 20
Duration : 1h 24mn
Bit rate mode : Constant
Bit rate : 534 Kbps
Nominal bit rate : 512 Kbps
Width : 624 pixels
Height : 336 pixels
Display aspect ratio : 1.857
Frame rate mode : Constant
Frame rate : 29.970 fps
Resolution : 24 bits
Colorimetry : 4:2:0
Scan type : Progressive
Bits/(Pixel*Frame) : 0.085
Stream size : 323 MiB (80%)
Writing library : ZJMedia MPEG Encoder

Audio
ID : 2
Format : AAC
Format/Info : Advanced Audio Codec
Format version : Version 4
Format profile : LC
Format settings, SBR : No
Codec ID : 40
Duration : 1h 24mn
Bit rate mode : Constant
Bit rate : 128 Kbps
Nominal bit rate : 64.0 Kbps
Channel(s) : 2 channels
Channel positions : L R
Sampling rate : 24.0 KHz
Resolution : 16 bits
Stream size : 77.4 MiB (19%)

UPLOAD BY MADDOG82-

"remember to seed" thank you

related torrents

Torrent name

health leech seeds Size
 


comments (0)

Main Menu