Thriller

A Perfect World[1993]DivX[WS]DVDrip[Eng] Atlas47

  • Download 5x Faster
  • Download torrent
  • Direct Download
  • Rate this torrent +  |  -
A Perfect World[1993]DivX[WS]DVDrip[Eng] Atlas47

Anonymous and Free Direct Download 300GB+


Torrent info

Name:A Perfect World[1993]DivX[WS]DVDrip[Eng] Atlas47

Total Size: 1.37 GB

Magnet: Magnet Link

Seeds: 0

Leechers: 0

Stream: Watch Online @ Movie4u

Last Updated: 2010-12-20 10:42:06 (Update Now)

Torrent added: 2009-08-29 19:09:52



VPN For Torrents

Torrent Files List


A Perfect World.avi (Size: 1.37 GB) (Files: 4)

 A Perfect World.avi

1.37 GB

 A Perfect World.nfo

9.74 KB

 A Perfect World.srt

86.71 KB

 Torrent_downloaded_from_Demonoid.com.txt

0.05 KB
 

Announce URL: http://tracker.thepiratebay.org:80/announce

Torrent description

INFO:


General
Complete name : A Perfect World.avi
Genre : Crime / Drama / Thriller
Format : AVI
Format/Info : Audio Video Interleave
File size : 1.37 GiB
Duration : 2h 12mn
Overall bit rate : 1 478 Kbps
Writing application : VirtualDubMod 1.5.4.1 (build 2178/release)
Writing library : VirtualDubMod build 2178/release

Video
Format : MPEG-4 Visual
Format settings, BVOP : Yes
Format settings, QPel : No
Format settings, GMC : No warppoints
Format settings, Matrix : Default
Codec ID : DX50
Codec ID/Hint : DivX 5
Duration : 2h 12mn
Bit rate : 1 086 Kbps
Width : 608 pixels
Height : 256 pixels
Display aspect ratio : 2.35
Frame rate : 25.000 fps
Resolution : 24 bits
Colorimetry : 4:2:0
Scan type : Progressive
Bits/(Pixel*Frame) : 0.279
Stream size : 1.01 GiB (74%)
Writing library : DivX 2816

Audio
Format : AC-3
Format/Info : Audio Coding 3
Codec ID : 2000
Duration : 2h 12mn
Bit rate mode : Constant
Bit rate : 384 Kbps
Channel(s) : 6 channels
Channel positions : Front: L C R, Surround: L R, LFE
Sampling rate : 48.0 KHz
Stream size : 364 MiB (26%)
Alignment : Split accross interleaves
Interleave, duration : 80 ms (2.00 video frames)
Interleave, preload duration : 500 ms
Language : English
SubTitles : English

°°°°°°°°°°°°°°°°°°°°°°°°°°°°°°°°°°°°°°°°°°°°°°°°°°°°°°°°°°°°°°°°°°°°°°°°°°°°°°

Butch Haynes, a hardened prison escapee on the lam with a young hostage who
sees in Butch the father figure he never had. Wily Texas Ranger Red Garnett,
leading deputies and a criminologist in a statewide pursuit. Red knows every
road and pothole in the Panhandle. What's more, he knows the elusive Haynes
- because their paths have crossed before

°°°°°°°°°°°°°°°°°°°°°°°°°°°°°°°°°°°°°°°°°°°°°°°°°°°°°°°°°°°°°°°°°°°°°°°°°°°°°°

CAST:

Kevin Costner............Robert 'Butch' Haynes
Clint Eastwood...........Chief Red Garnett
Laura Dern...............Sally Gerber
T.J. Lowther.............Phillip 'Buzz' Perry
Keith Szarabajka.........Terry Pugh
Leo Burmester............Tom Adler

related torrents

Torrent name

health leech seeds Size
 


comments (0)

Main Menu