Other

Peter Kays Special Kay (2008) [

  • Download 5x Faster
  • Download torrent
  • Direct Download
  • Rate this torrent +  |  -
Peter Kays Special Kay (2008) [

Free and Direct Download with Usenet.nl 300GB+ free


Torrent info

Name:Peter Kays Special Kay (2008) [

Total Size: 742.14 MB

Magnet: Magnet Link

Seeds: 0

Leechers: 0

Stream: Watch Online @ Movie4u

Last Updated: 2015-08-28 09:08:40 (Update Now)

Torrent added: 2009-08-29 18:50:18





Torrent Files List


New Rich Text Document (4).rtf (Size: 742.14 MB) (Files: 16)

 New Rich Text Document (4).rtf

0.42 KB

 Peter Kay - Special Kay.part01.rar

50.00 MB

 Peter Kay - Special Kay.part02.rar

50.00 MB

 Peter Kay - Special Kay.part03.rar

50.00 MB

 Peter Kay - Special Kay.part04.rar

50.00 MB

 Peter Kay - Special Kay.part05.rar

50.00 MB

 Peter Kay - Special Kay.part06.rar

50.00 MB

 Peter Kay - Special Kay.part07.rar

50.00 MB

 Peter Kay - Special Kay.part08.rar

50.00 MB

 Peter Kay - Special Kay.part09.rar

50.00 MB

 Peter Kay - Special Kay.part10.rar

50.00 MB

 Peter Kay - Special Kay.part11.rar

50.00 MB

 Peter Kay - Special Kay.part12.rar

50.00 MB

 Peter Kay - Special Kay.part13.rar

50.00 MB

 Peter Kay - Special Kay.part14.rar

50.00 MB

 Peter Kay - Special Kay.part15.rar

42.14 MB
 

tracker

leech seeds
 

Torrent description

Help yourself to an extra tasty serving of Special Kay - a golden cluster of the finest and funniest comedy moments that have made Peter Kay one of the UK's favourite comedians. A multitude of hilarious TV moments - many never seen before on national television - show why audiences keep coming back for repeat sprinklings of comedy magic from Britain's funniest man.

From early appearances on Granada's The Last Laugh Show to cameos in Coronation Street; uproarious banter with Parkinson and Jonathan Ross; scintillating stand-up on Children In Need and Comic Relief, the hugely popular and award-winning John Smiths ads and so much more

Complete name : Peter Kay - Special Kay.avi
Format : AVI
Format/Info : Audio Video Interleave
File size : 748 MiB
Duration : 1h 18mn
Overall bit rate : 1 333 Kbps

Video
Format : MPEG-4 Visual
Format profile : [email protected]
Format settings, BVOP : No
Format settings, QPel : No
Format settings, GMC : No warppoints
Format settings, Matrix : Default
Codec ID : XVID
Codec ID/Hint : XviD
Duration : 1h 18mn
Bit rate : 1 193 Kbps
Width : 640 pixels
Height : 360 pixels
Display aspect ratio : 16/9
Frame rate : 25.000 fps
Resolution : 24 bits
Colorimetry : 4:2:0
Scan type : Progressive
Bits/(Pixel*Frame) : 0.207
Stream size : 670 MiB (89%)
Writing library : Magic0432

Audio
Format : MPEG Audio
Format version : Version 1
Format profile : Layer 3
Codec ID : 55
Codec ID/Hint : MP3
Duration : 1h 18mn
Bit rate mode : Constant
Bit rate : 128 Kbps
Channel(s) : 2 channels
Sampling rate : 44.1 KHz
Resolution : 16 bits
Stream size : 71.9 MiB (10%)
Alignment : Aligned on interleaves
Interleave, duration : 26 ms (0.65 video frame)
Writing library : LAME3.97

related torrents

Torrent name

health leech seeds Size
 

comments (0)

Main Menu