Rock

ALLMAN BROTHERS Wipe the windows, check the oil, dollar gas (1976) (Flac Eac lossless)[colombo bt

  • Download 5x Faster
  • Download torrent
  • Direct Download
  • Rate this torrent +  |  -

Torrent info

Name:ALLMAN BROTHERS Wipe the windows, check the oil, dollar gas (1976) (Flac Eac lossless)[colombo bt

Total Size: 463.51 MB

Magnet: Magnet Link

Seeds: 0

Leechers: 2

Stream: Watch Online @ Movie4u

Last Updated: 0000-00-00 00:00:00 (Update Now)

Torrent added: 2009-08-29 18:46:31





Torrent Files List


01 Introduction By Bill Graham.flac (Size: 463.51 MB) (Files: 22)

 01 Introduction By Bill Graham.flac

6.66 MB

 02 Wasted Words.flac

35.08 MB

 03 Southbound.flac

40.51 MB

 04 Ramblin' Man.flac

45.99 MB

 05 In Memory Of Elizabeth Reed.flac

110.53 MB

 06 Ain't Wastin' Time No More.flac

36.61 MB

 07 Come And Go Blues.flac

31.49 MB

 08 Can't Lose What You Never Had.flac

42.62 MB

 09 Don't Want You No More.flac

18.07 MB

 10 It's Not MY Cross To Bear.flac

33.80 MB

 11 Jessica.flac

58.30 MB

 AB - custodia fronte168.jpg

1.00 MB

 AB - interno x174.jpg

678.07 KB

 AB - retro interno167.jpg

618.35 KB

 ALLMAN BROTHERS - Wipe The Windows (Live 1976).ffp

0.77 KB

 The Allman Brothers Band - Wipe The Windows, Check The Oil, Dollar Gas.log

5.35 KB

 The Allman Brothers Band - Wipe The Windows, Check The Oil, Dollar Gas.m3u

0.96 KB

 The_Allman_Brothers_Band_-_Wipe_The_Windows,_Check_The_Oil,_Dollar_Gas_-_Back.jpg

834.98 KB

 The_Allman_Brothers_Band_-_Wipe_The_Windows,_Check_The_Oil,_Dollar_Gas_-_CD.jpg

180.48 KB

 The_Allman_Brothers_Band_-_Wipe_The_Windows,_Check_The_Oil,_Dollar_Gas_-_Front.jpg

239.78 KB

 The_Allman_Brothers_Band_-_Wipe_The_Windows,_Check_The_Oil,_Dollar_Gas_-_Inside.jpg

349.27 KB

 Wipe The Windows, Check The Oil, Dollar Gas.cue

2.01 KB
 

Announce URL: http://tracker.publicbt.com/announce

Torrent description

ALLMAN BROTHERS - Wipe the windows, check the oil, dollar gas (live, 1976)"








Titolo: ALLMAN BROTHERS "Wipe the windows, check the oil, dollar gas" (1976)
Etichetta: Capricorn Records / Polygram Records
Genere: Rock
Formato: Flac Level 8
Cover: sì
Fonte: CD originale
Edizione - Remaster Capricorn Classics


Codice:
Exact Audio Copy V0.99 prebeta 3 from 28. July 2007

EAC extraction logfile from 5. April 2008, 14:08

The Allman Brothers Band / Wipe The Windows, Check The Oil, Dollar Gas

Used drive : PLEXTOR DVDR PX-800A Adapter: 1 ID: 0

Read mode : Secure
Utilize accurate stream : Yes
Defeat audio cache : Yes
Make use of C2 pointers : No

Read offset correction : 48
Overread into Lead-In and Lead-Out : No
Fill up missing offset samples with silence : Yes
Delete leading and trailing silent blocks : No
Null samples used in CRC calculations : No
Used interface : Installed external ASPI interface
Gap handling : Appended to previous track

Used output format : Internal WAV Routines
Sample format : 44.100 Hz; 16 Bit; Stereo


TOC of the extracted CD

Track | Start | Length | Start sector | End sector
---------------------------------------------------------
1 | 0:00.00 | 1:06.05 | 0 | 4954
2 | 1:06.05 | 5:13.72 | 4955 | 28501
3 | 6:20.02 | 6:06.23 | 28502 | 55974
4 | 12:26.25 | 7:09.25 | 55975 | 88174
5 | 19:35.50 | 17:23.20 | 88175 | 166419
6 | 36:58.70 | 5:44.17 | 166420 | 192236
7 | 42:43.12 | 5:07.63 | 192237 | 215324
8 | 47:51.00 | 6:45.65 | 215325 | 245764
9 | 54:36.65 | 2:48.00 | 245765 | 258364
10 | 57:24.65 | 5:24.27 | 258365 | 282691
11 | 62:49.17 | 9:12.65 | 282692 | 324156


Track 1

Filename C:\Documents and Settings\Stefano\Desktop\ALLMAN BROTHERS - Wipe The Windows (Live 1976)\01 Introduction By Bill Graham.wav

Pre-gap length 0:00:02.00

Peak level 60.7 %
Track quality 99.8 %
Test CRC FF812F90
Copy CRC FF812F90
Accurately ripped (confidence 3) [AC623768]
Copy OK

Track 2

Filename C:\Documents and Settings\Stefano\Desktop\ALLMAN BROTHERS - Wipe The Windows (Live 1976)\02 Wasted Words.wav

Peak level 100.0 %
Track quality 100.0 %
Test CRC FE57E8D8
Copy CRC FE57E8D8
Accurately ripped (confidence 3) [8AF7A7DC]
Copy OK

Track 3

Filename C:\Documents and Settings\Stefano\Desktop\ALLMAN BROTHERS - Wipe The Windows (Live 1976)\03 Southbound.wav

Pre-gap length 0:00:01.32

Peak level 94.4 %
Track quality 100.0 %
Test CRC 3650C150
Copy CRC 3650C150
Accurately ripped (confidence 3) [D2A5ED8C]
Copy OK

Track 4

Filename C:\Documents and Settings\Stefano\Desktop\ALLMAN BROTHERS - Wipe The Windows (Live 1976)\04 Ramblin' Man.wav

Pre-gap length 0:00:01.58

Peak level 99.3 %
Track quality 99.9 %
Test CRC 48AA5BA6
Copy CRC 48AA5BA6
Accurately ripped (confidence 3) [07721419]
Copy OK

Track 5

Filename C:\Documents and Settings\Stefano\Desktop\ALLMAN BROTHERS - Wipe The Windows (Live 1976)\05 In Memory Of Elizabeth Reed.wav

Peak level 100.0 %
Track quality 99.9 %
Test CRC 4F48C5F4
Copy CRC 4F48C5F4
Accurately ripped (confidence 3) [C6547690]
Copy OK

Track 6

Filename C:\Documents and Settings\Stefano\Desktop\ALLMAN BROTHERS - Wipe The Windows (Live 1976)\06 Ain't Wastin' Time No More.wav

Pre-gap length 0:00:02.60

Peak level 94.5 %
Track quality 100.0 %
Test CRC 32767A1C
Copy CRC 32767A1C
Accurately ripped (confidence 3) [655D49ED]
Copy OK

Track 7

Filename C:\Documents and Settings\Stefano\Desktop\ALLMAN BROTHERS - Wipe The Windows (Live 1976)\07 Come And Go Blues.wav

Pre-gap length 0:00:01.65

Peak level 73.0 %
Track quality 100.0 %
Test CRC CF79604C
Copy CRC CF79604C
Accurately ripped (confidence 3) [A6E8D192]
Copy OK

Track 8

Filename C:\Documents and Settings\Stefano\Desktop\ALLMAN BROTHERS - Wipe The Windows (Live 1976)\08 Can't Lose What You Never Had.wav

Pre-gap length 0:00:01.65

Peak level 96.0 %
Track quality 100.0 %
Test CRC A060DDA7
Copy CRC A060DDA7
Accurately ripped (confidence 3) [98244505]
Copy OK

Track 9

Filename C:\Documents and Settings\Stefano\Desktop\ALLMAN BROTHERS - Wipe The Windows (Live 1976)\09 Don't Want You No More.wav

Pre-gap length 0:00:01.30

Peak level 84.1 %
Track quality 99.9 %
Test CRC 0365F39E
Copy CRC 0365F39E
Accurately ripped (confidence 3) [84660E6B]
Copy OK

Track 10

Filename C:\Documents and Settings\Stefano\Desktop\ALLMAN BROTHERS - Wipe The Windows (Live 1976)\10 It's Not MY Cross To Bear.wav

Peak level 84.1 %
Track quality 100.0 %
Test CRC 03BE9697
Copy CRC 03BE9697
Accurately ripped (confidence 3) [C00B74C3]
Copy OK

Track 11

Filename C:\Documents and Settings\Stefano\Desktop\ALLMAN BROTHERS - Wipe The Windows (Live 1976)\11 Jessica.wav

Peak level 74.9 %
Track quality 99.9 %
Test CRC F2046F0D
Copy CRC F2046F0D
Accurately ripped (confidence 3) [D0305C25]
Copy OK


All tracks accurately ripped

No errors occurred

End of status report





01.Introduction by Bill Graham
02.Wasted words
03.Southbound
04.Ramblin' man
05.In memory of Elizabeth Reed
06.Ain't wastin' time no more
07.Come and go blues
08.Can't lose what you never had
09.Don't want you no more
10.It's not my cross to bear
11.Jessica






“PULISCI I VETRI, CONTROLLA L’OLIO E FAI IL PIENO” del 1976 non è un live molto conosciuto degli Allman Brothers, probabilmente perché soffre il confronto con il celebratissimo predecessore live AT FILLMORE EAST e perché fu pubblicato dopo il primo scioglimento del gruppo.
E’ un peccato perché è un buon album, registrato in giro per gli States nel 1972, 1973 e 1975 quindi a cavallo BROTHERS AND SISTERS (1973) album di grande successo.
Dopo la morte di DUANE ALLMAN (chitarra) e BERRY OAKLEY (basso) nel gruppo entrarono il grande CHUCK LEAVELL al piano e LAMAR WILLIAMS al basso, la band si fece meno blues e con il già citato BROTHERS AND SISTERS raggiunse il primo posto delle classifiche USA grazie a hit come RAMBLIN’ MAN (che arrivò al secondo posto dei singoli), JESSICA (il famosissimo strumentale) e SOUTHBOUND, tutti pezzi compresi in questo live.
WIPE THE WINDOWS CHECK THE OIL DOLLAR GAS è l’ultimo capitolo interessante degli Allman, dopo di questo arrivarono cose magari carine ma francamente inutili ed è qui riproposto nella versione rimasterizzata CAPRICORN CLASSICS.

related torrents

Torrent name

health leech seeds Size
 

comments (0)

Main Menu