Rock

Alanis Morissette The Collection [Flac+Cue]TntVillage[King Of Colombo]

  • Download 5x Faster
  • Download torrent
  • Direct Download
  • Rate this torrent +  |  -
Alanis Morissette The Collection [Flac+Cue]TntVillage[King Of Colombo]

Free and Direct Download with Usenet.nl 300GB+ free


Torrent info

Name:Alanis Morissette The Collection [Flac+Cue]TntVillage[King Of Colombo]

Total Size: 519.42 MB

Magnet: Magnet Link

Seeds: 0

Leechers: 0

Stream: Watch Online @ Movie4u

Last Updated: 2015-11-25 19:31:00 (Update Now)

Torrent added: 2009-08-29 18:33:00





Torrent Files List


Alanis Morissette - The Collection - Back.jpg (Size: 519.42 MB) (Files: 8)

 Alanis Morissette - The Collection - Back.jpg

489.33 KB

 Alanis Morissette - The Collection - CD.jpg

332.44 KB

 Alanis Morissette - The Collection - Front.jpg

69.63 KB

 Alanis Morissette - The Collection - Inside.jpg

220.91 KB

 Alanis Morissette - The Collection.cue

1.98 KB

 Alanis Morissette - The Collection.flac

518.28 MB

 alaniscollection.jpg

54.28 KB

 The Collection.log

4.58 KB
 

tracker

leech seeds
 

Torrent description

Titolo: The Collection
[b]Data di uscita: 2005
Genere: Rock - Pop
Etichetta: Maverick / Warner
Contiene: Cover
fonte cd /originale /cdda

:::->Tracklist<-:::

1. Thank you
2. Head over feet
3. 8 easy steps
4. Everything
5. Crazy
6. Ironic
7. Princes familiar (mtv unplugged)
8. You learn
9. Simple together
10. You oughta know
11. That I would be good
12. Sister blister
13. Hands clean
14. Mercy (from the prayer cycle)
15. Still (from the dogma soundtrack)
16. Uninvited (from the city of angels soundtrack)
17. Let's do it (let's fall in love) (from the de-lovely soundtrack)
18. Hand in my pocket


Exact Audio Copy V0.99 prebeta 3 from 28. July 2007

EAC extraction logfile from 14. April 2008, 9:57

Alanis Morissette / The Collection

Used drive : _NEC DVD_RW ND-3550A Adapter: 5 ID: 0

Read mode : Secure
Utilize accurate stream : Yes
Defeat audio cache : Yes
Make use of C2 pointers : No

Read offset correction : 48
Overread into Lead-In and Lead-Out : No
Fill up missing offset samples with silence : Yes
Delete leading and trailing silent blocks : No
Null samples used in CRC calculations : No
Used interface : Installed external ASPI interface

Used output format : User Defined Encoder
Selected bitrate : 768 kBit/s
Quality : High
Add ID3 tag : No
Command line compressor : C:\Programmi\Exact Audio Copy\FLAC\FLAC.EXE
Additional command line options : -6 -V -T "ARTIST=%a" -T "TITLE=%t" -T "ALBUM=%g" -T "DATE=%y" -T "TRACKNUMBER=%n" -T "GENRE=%m" -T "COMMENT=%e" %s -o %d


TOC of the extracted CD

Track | Start | Length | Start sector | End sector
---------------------------------------------------------
1 | 0:00.00 | 4:18.62 | 0 | 19411
2 | 4:18.62 | 4:24.30 | 19412 | 39241
3 | 8:43.17 | 2:52.68 | 39242 | 52209
4 | 11:36.10 | 4:34.42 | 52210 | 72801
5 | 16:10.52 | 3:39.05 | 72802 | 89231
6 | 19:49.57 | 3:48.63 | 89232 | 106394
7 | 23:38.45 | 4:34.42 | 106395 | 126986
8 | 28:13.12 | 3:59.30 | 126987 | 144941
9 | 32:12.42 | 4:48.15 | 144942 | 166556
10 | 37:00.57 | 4:08.33 | 166557 | 185189
11 | 41:09.15 | 4:17.07 | 185190 | 204471
12 | 45:26.22 | 4:12.60 | 204472 | 223431
13 | 49:39.07 | 4:33.35 | 223432 | 243941
14 | 54:12.42 | 3:44.03 | 243942 | 260744
15 | 57:56.45 | 6:17.60 | 260745 | 289079
16 | 64:14.30 | 4:36.15 | 289080 | 309794
17 | 68:50.45 | 3:23.20 | 309795 | 325039
18 | 72:13.65 | 3:39.47 | 325040 | 341511


Range status and errors

Selected range

Filename D:\Documents and Settings\salvo.SN116508160310\Documenti\Alanis Morissette - The Collection.wav

Peak level 100.0 %
Range quality 100.0 %
Test CRC C95E90C9
Copy CRC C95E90C9
Copy OK

No errors occurred


AccurateRip summary

Track 1 cannot be verified as accurate (confidence 38) [47FD0E9F], AccurateRip returned [B6A06CBF]
Track 2 cannot be verified as accurate (confidence 41) [B0E5A427], AccurateRip returned [6AAD8913]
Track 3 cannot be verified as accurate (confidence 40) [C90FCAB4], AccurateRip returned [9D051870]
Track 4 cannot be verified as accurate (confidence 39) [7851FEFE], AccurateRip returned [DF945586]
Track 5 cannot be verified as accurate (confidence 41) [5A355E8D], AccurateRip returned [93C4E2A5]
Track 6 cannot be verified as accurate (confidence 39) [B2A4819C], AccurateRip returned [2CB7A514]
Track 7 cannot be verified as accurate (confidence 39) [D9765EB3], AccurateRip returned [8C95FA1B]
Track 8 cannot be verified as accurate (confidence 41) [577F0927], AccurateRip returned [1073CA0F]
Track 9 cannot be verified as accurate (confidence 40) [056EFA83], AccurateRip returned [01A9052B]
Track 10 cannot be verified as accurate (confidence 41) [323A8995], AccurateRip returned [F7C561CB]
Track 11 cannot be verified as accurate (confidence 40) [D3121D86], AccurateRip returned [748242A4]
Track 12 cannot be verified as accurate (confidence 40) [3D24FAD6], AccurateRip returned [0969348A]
Track 13 cannot be verified as accurate (confidence 40) [9B4D25D8], AccurateRip returned [5CD5CE38]
Track 14 cannot be verified as accurate (confidence 41) [8A5221DD], AccurateRip returned [C3386CFA]
Track 15 cannot be verified as accurate (confidence 40) [742DE999], AccurateRip returned [3D879518]
Track 16 cannot be verified as accurate (confidence 41) [FEED743E], AccurateRip returned [F8A20BB9]
Track 17 cannot be verified as accurate (confidence 39) [357114A7], AccurateRip returned [38853FEC]
Track 18 cannot be verified as accurate (confidence 42) [C7B61104], AccurateRip returned [7635C764]

No tracks could be verified as accurate
You may have a different pressing from the one(s) in the database

End of status report

related torrents

Torrent name

health leech seeds Size
 

comments (0)

Main Menu