Rock

AA VV When The Levee Breaks (Uncut magazine 2008 05) [Eac Flac][colombo bt org]

  • Download 5x Faster
  • Download torrent
  • Direct Download
  • Rate this torrent +  |  -

Torrent info

Name:AA VV When The Levee Breaks (Uncut magazine 2008 05) [Eac Flac][colombo bt org]

Total Size: 149.53 MB

Magnet: Magnet Link

Seeds: 0

Leechers: 1

Stream: Watch Online @ Movie4u

Last Updated: 2015-09-05 08:37:32 (Update Now)

Torrent added: 2009-08-29 18:12:01



VPN For Torrents

Torrent Files List


01 Tiny Bradshaw , The Train Kept A Rollin.flac (Size: 149.53 MB) (Files: 23)

 01 Tiny Bradshaw , The Train Kept A Rollin.flac

11.44 MB

 02 Josh White , Jesus Gonna Make Up My Dyin Bed.flac

8.05 MB

 03 Elvis Presley , Baby Lets Play House.flac

9.89 MB

 04 Memphis Minnie , When The Levee Breaks.flac

9.92 MB

 05 Leadbelly , Gallis Pole.flac

13.97 MB

 06 Otis Rush , I Cant Quit You Babe.flac

13.41 MB

 07 Robert Johnson , Traveling Riverside Blues.flac

7.75 MB

 08 Elmore James , Knocking At Your Door.flac

8.76 MB

 09 Blind Willie Johnson , Its Nobodys Fault But Mine.flac

9.61 MB

 10 Little Walter , Oh Baby.flac

9.76 MB

 11 Bukka White , Shake Em On Down.flac

9.31 MB

 12 Sleepy John Estes , The Girl I Love She Got Long Curly Hair.flac

7.75 MB

 13 John Lee Hooker , Boogie Chillun.flac

10.05 MB

 14 Clyde McPhatter & The Drifters , Money Honey.flac

10.74 MB

 15 Big Bill Broonzy , Trucking Little Woman.flac

7.83 MB

 AA.VV. - When The Levee Breaks (Uncut magazine 2008) [Eac Flac].ffp

1.28 KB

 cd 303.jpg

238.28 KB

 fronte304.jpg

581.49 KB

 retro305.jpg

491.20 KB

 Uncut -When The Levee Breaks.cue

3.16 KB

 Uncut 2008 05.txt

0.59 KB

 Uncut Magazine - Uncut -When The Levee Breaks.log

7.58 KB

 Uncut Magazine - Uncut -When The Levee Breaks.m3u

1.70 KB
 

tracker

leech seeds
 

Torrent description

AA VV    When The Levee Breaks (Uncut magazine 2008 05) [Eac Flac][colombo bt org] preview 0

[color=blue][size=18pt]\"AA.VV. - When The Levee Breaks - 15 classic tracks that inspired Led Zeppelin (Uncut magazine 2008 05)[Eac Flac]\"[/size][/color]

AA VV    When The Levee Breaks (Uncut magazine 2008 05) [Eac Flac][colombo bt org] preview 1

AA VV    When The Levee Breaks (Uncut magazine 2008 05) [Eac Flac][colombo bt org] preview 2

[color=blue][font=Verdana]Titolo: AA.VV. - When The Levee Breaks - 15 tracks that inspired Led Zeppelin
Anno: 2008
Etichetta: Uncut magazine
Genere: Blues
Formato: Flac Level 8
Cover: sì (scansioni originali)
Fonte: CD originale
Edizione: Uncut Magazine Uk 2008 n.05
[/font][/color]

[code]Exact Audio Copy V0.99 prebeta 3 from 28. July 2007

EAC extraction logfile from 9. May 2008, 2:29

Uncut Magazine / Uncut -When The Levee Breaks

Used drive : PLEXTOR DVDR PX-800A Adapter: 1 ID: 0

Read mode : Secure
Utilize accurate stream : Yes
Defeat audio cache : Yes
Make use of C2 pointers : No

Read offset correction : 48
Overread into Lead-In and Lead-Out : No
Fill up missing offset samples with silence : Yes
Delete leading and trailing silent blocks : No
Null samples used in CRC calculations : No
Used interface : Installed external ASPI interface
Gap handling : Appended to previous track

Used output format : Internal WAV Routines
Sample format : 44.100 Hz; 16 Bit; Stereo


TOC of the extracted CD

Track | Start | Length | Start sector | End sector
---------------------------------------------------------
1 | 0:00.00 | 2:47.28 | 0 | 12552
2 | 2:47.28 | 3:04.42 | 12553 | 26394
3 | 5:51.70 | 2:17.03 | 26395 | 36672
4 | 8:08.73 | 3:10.32 | 36673 | 50954
5 | 11:19.30 | 3:02.08 | 50955 | 64612
6 | 14:21.38 | 3:07.07 | 64613 | 78644
7 | 17:28.45 | 2:48.50 | 78645 | 91294
8 | 20:17.20 | 2:36.65 | 91295 | 103059
9 | 22:54.10 | 3:10.39 | 103060 | 117348
10 | 26:04.49 | 2:45.51 | 117349 | 129774
11 | 28:50.25 | 3:01.07 | 129775 | 143356
12 | 31:51.32 | 2:56.63 | 143357 | 156619
13 | 34:48.20 | 3:08.59 | 156620 | 170778
14 | 37:57.04 | 2:56.52 | 170779 | 184030
15 | 40:53.56 | 2:38.27 | 184031 | 195907


Track 1

Filename C:\\Documents and Settings\\Stefano\\Desktop\\AA.VV. - When The Levee Breaks (Uncut magazine 2008) [Eac Flac]\\01 Tiny Bradshaw , The Train Kept A Rollin.wav

Pre-gap length 0:00:02.00

Peak level 100.0 %
Track quality 99.9 %
Test CRC B40359DC
Copy CRC B40359DC
Track not present in AccurateRip database
Copy OK

Track 2

Filename C:\\Documents and Settings\\Stefano\\Desktop\\AA.VV. - When The Levee Breaks (Uncut magazine 2008) [Eac Flac]\\02 Josh White , Jesus Gonna Make Up My Dyin Bed.wav

Pre-gap length 0:00:01.15

Peak level 100.0 %
Track quality 100.0 %
Test CRC B2FA2592
Copy CRC B2FA2592
Track not present in AccurateRip database
Copy OK

Track 3

Filename C:\\Documents and Settings\\Stefano\\Desktop\\AA.VV. - When The Levee Breaks (Uncut magazine 2008) [Eac Flac]\\03 Elvis Presley , Baby Lets Play House.wav

Pre-gap length 0:00:01.47

Peak level 100.0 %
Track quality 100.0 %
Test CRC E4B89C0B
Copy CRC E4B89C0B
Track not present in AccurateRip database
Copy OK

Track 4

Filename C:\\Documents and Settings\\Stefano\\Desktop\\AA.VV. - When The Levee Breaks (Uncut magazine 2008) [Eac Flac]\\04 Memphis Minnie , When The Levee Breaks.wav

Pre-gap length 0:00:02.22

Peak level 100.0 %
Track quality 100.0 %
Test CRC BCBD33E4
Copy CRC BCBD33E4
Track not present in AccurateRip database
Copy OK

Track 5

Filename C:\\Documents and Settings\\Stefano\\Desktop\\AA.VV. - When The Levee Breaks (Uncut magazine 2008) [Eac Flac]\\05 Leadbelly , Gallis Pole.wav

Pre-gap length 0:00:02.08

Peak level 100.0 %
Track quality 99.8 %
Test CRC 71CDDAE2
Copy CRC 71CDDAE2
Track not present in AccurateRip database
Copy OK

Track 6

Filename C:\\Documents and Settings\\Stefano\\Desktop\\AA.VV. - When The Levee Breaks (Uncut magazine 2008) [Eac Flac]\\06 Otis Rush , I Cant Quit You Babe.wav

Pre-gap length 0:00:01.74

Peak level 100.0 %
Track quality 100.0 %
Test CRC 706F06E3
Copy CRC 706F06E3
Track not present in AccurateRip database
Copy OK

Track 7

Filename C:\\Documents and Settings\\Stefano\\Desktop\\AA.VV. - When The Levee Breaks (Uncut magazine 2008) [Eac Flac]\\07 Robert Johnson , Traveling Riverside Blues.wav

Pre-gap length 0:00:01.36

Peak level 100.0 %
Track quality 99.9 %
Test CRC 02EA6E8B
Copy CRC 02EA6E8B
Track not present in AccurateRip database
Copy OK

Track 8

Filename C:\\Documents and Settings\\Stefano\\Desktop\\AA.VV. - When The Levee Breaks (Uncut magazine 2008) [Eac Flac]\\08 Elmore James , Knocking At Your Door.wav

Pre-gap length 0:00:01.41

Peak level 100.0 %
Track quality 100.0 %
Test CRC DC3798EB
Copy CRC DC3798EB
Track not present in AccurateRip database
Copy OK

Track 9

Filename C:\\Documents and Settings\\Stefano\\Desktop\\AA.VV. - When The Levee Breaks (Uncut magazine 2008) [Eac Flac]\\09 Blind Willie Johnson , Its Nobodys Fault But Mine.wav

Pre-gap length 0:00:00.71

Peak level 100.0 %
Track quality 100.0 %
Test CRC 80312E6C
Copy CRC 80312E6C
Track not present in AccurateRip database
Copy OK

Track 10

Filename C:\\Documents and Settings\\Stefano\\Desktop\\AA.VV. - When The Levee Breaks (Uncut magazine 2008) [Eac Flac]\\10 Little Walter , Oh Baby.wav

Pre-gap length 0:00:01.52

Peak level 100.0 %
Track quality 99.9 %
Test CRC E41555F1
Copy CRC E41555F1
Track not present in AccurateRip database
Copy OK

Track 11

Filename C:\\Documents and Settings\\Stefano\\Desktop\\AA.VV. - When The Levee Breaks (Uncut magazine 2008) [Eac Flac]\\11 Bukka White , Shake Em On Down.wav

Pre-gap length 0:00:01.62

Peak level 100.0 %
Track quality 100.0 %
Test CRC 0E396789
Copy CRC 0E396789
Track not present in AccurateRip database
Copy OK

Track 12

Filename C:\\Documents and Settings\\Stefano\\Desktop\\AA.VV. - When The Levee Breaks (Uncut magazine 2008) [Eac Flac]\\12 Sleepy John Estes , The Girl I Love She Got Long Curly Hair.wav

Pre-gap length 0:00:02.13

Peak level 100.0 %
Track quality 100.0 %
Test CRC AA037772
Copy CRC AA037772
Track not present in AccurateRip database
Copy OK

Track 13

Filename C:\\Documents and Settings\\Stefano\\Desktop\\AA.VV. - When The Levee Breaks (Uncut magazine 2008) [Eac Flac]\\13 John Lee Hooker , Boogie Chillun.wav

Pre-gap length 0:00:01.65

Peak level 100.0 %
Track quality 100.0 %
Test CRC 83062431
Copy CRC 83062431
Track not present in AccurateRip database
Copy OK

Track 14

Filename C:\\Documents and Settings\\Stefano\\Desktop\\AA.VV. - When The Levee Breaks (Uncut magazine 2008) [Eac Flac]\\14 Clyde McPhatter & The Drifters , Money Honey.wav

Pre-gap length 0:00:01.74

Peak level 100.0 %
Track quality 100.0 %
Test CRC E47B69EA
Copy CRC E47B69EA
Track not present in AccurateRip database
Copy OK

Track 15

Filename C:\\Documents and Settings\\Stefano\\Desktop\\AA.VV. - When The Levee Breaks (Uncut magazine 2008) [Eac Flac]\\15 Big Bill Broonzy , Trucking Little Woman.wav

Pre-gap length 0:00:01.10

Peak level 100.0 %
Track quality 99.8 %
Test CRC 8D426AED
Copy CRC 8D426AED
Track not present in AccurateRip database
Copy OK


None of the tracks are present in the AccurateRip database

No errors occurred

End of status report
[/code]

AA VV    When The Levee Breaks (Uncut magazine 2008 05) [Eac Flac][colombo bt org] preview 3

[color=blue]01.TINY BRADSHAW ORCHESTRA - the train kept a-rollin\'
02.JOSH WHITE - jesus gonna make up my dyin\' bed
03.ELVIS PRESLEY - baby let\'s play house
04.MEMPHIS MINNIE - when the levee breaks
05.LEADBELLY - gallis pole
06.OTISH RUSH - i can\'t quit you baby
07.ROBERT JOHNSON - traveling riverside blues
08.ELMORE JAMES - knocking at your door
09.BLIND WILLIE JOHNSON - it\'s nobody\'s fault but mine
10.LITTLE WALTER - oh baby
11.BUKKA WHITE - shake \'em down
12.SLEEPY JOHN ESTES - the girl i love
13.JOHN LEE HOOKER - boogie chillum
14.CLYDE McPHATTER - money honey
15.BIG BILL BRONZY - trucking little woman
[/color]

AA VV    When The Levee Breaks (Uncut magazine 2008 05) [Eac Flac][colombo bt org] preview 4

AA VV    When The Levee Breaks (Uncut magazine 2008 05) [Eac Flac][colombo bt org] preview 5

[font=Verdana]
A volte le riviste specializzate inglesi tipo CLASSIC ROCK, MOJO e UNCUT (davvero il meglio per quanto riguarda il giornalismo musicale) allegano alle proprie uscite CD degni di nota. E’ il caso del dischetto allegato a Uncut n.05 2008, intitolato WHEN THE LEVEE BREAKS – 15 CLASSIC TRACKS THAT INSPIRED LED ZEPPELIN.
La raccolta in questione prevede i pezzi blues originali a cui si sono ispirati i LED ZEPPELIN, troviamo quindi ad esempio la versione originale di WHEN THE LEVEE BREAKS (vedi pezzo omonimo degli Zep), poi SHAKE ‘EM ON DOWN (vedi testo di CUSTARD PIE), oppure TRAVELING RIVERSIDE BLUES (vedi pezzo omonimo degli Zep), BOOGIE CHILLUM (vedi medley di WHOLE LOTTA LOVE Live), GALLIS POLE (vedi GALLOWS POLE), JESUS GONNA MAKE UP MY DYIN’ BED (vedi IN MY TIME OF DYING) e così via.
Personalmente trovo che la chicca di questo CD sia l’inclusione di THE TRAIN KEPT A-ROLLIN’ nella RARISSIMA versione originale di TINY BRADSHAW & HIS ORCHESTRA; questo fu il primo pezzo che gli Zep provarono insieme la prima volta che si trovarono a suonare insieme in una piccola sala prove, pezzo poi suonato dal vivo durante i tour del 1969 e 1980. Lo stesso pezzo fu per un lungo periodo anche un cavallo di battaglia per JEFF BECK e gli AEROSMITH.
Per gli amanti dei Led Zeppelin un dischetto davvero interessante, per tutti gli altri una gradevole compilation di blues, quello originale, quello vero, quello che mette paura, quello che fa sì che uomini tipo il sottoscritto e Thewall si ritrovino puntualmente all’incrocio a meditare.

Dedicated to my friend Roby, with whom I am \"traveling riverside\".

(note di nonantolaslim maggio08)

related torrents

Torrent name

health leech seeds Size
 


comments (0)

Main Menu