Rock

AA VV The Ultimate Tribute To Led Zeppelin (2008 2cd)[Eac Flac][colombo bt org]

  • Download 5x Faster
  • Download torrent
  • Direct Download
  • Rate this torrent +  |  -
AA VV The Ultimate Tribute To Led Zeppelin (2008 2cd)[Eac Flac][colombo bt org]

Free and Direct Download with Usenet.nl 300GB+ free


Torrent info

Name:AA VV The Ultimate Tribute To Led Zeppelin (2008 2cd)[Eac Flac][colombo bt org]

Total Size: 600.72 MB

Magnet: Magnet Link

Seeds: 0

Leechers: 1

Stream: Watch Online @ Movie4u

Last Updated: 2016-07-26 05:59:06 (Update Now)

Torrent added: 2009-08-29 18:12:01





Torrent Files List


AA.VV The ultimate tribute to LZ.txt (Size: 600.72 MB) (Files: 32)

 AA.VV The ultimate tribute to LZ.txt

0.55 KB

 CD1

  01 Track01.flac

20.83 MB

  02 Track02.flac

39.65 MB

  03 Track03.flac

40.38 MB

  04 Track04.flac

17.42 MB

  05 Track05.flac

29.28 MB

  06 Track06.flac

26.69 MB

  07 Track07.flac

32.51 MB

  08 Track08.flac

54.43 MB

  CD1.ffp

0.49 KB

  Unknown Artist - Unknown Title.log

4.18 KB

  Unknown Artist - Unknown Title.m3u

0.43 KB

  Unknown Title.cue

1.34 KB

 CD1309.jpg

248.97 KB

 CD2

  01 Track01.flac

29.57 MB

  02 Track02.flac

27.31 MB

  03 Track03.flac

42.49 MB

  04 Track04.flac

39.42 MB

  05 Track05.flac

33.68 MB

  06 Track06.flac

46.05 MB

  07 Track07.flac

31.89 MB

  08 Track08.flac

38.34 MB

  09 Track09.flac

44.13 MB

  CD2.ffp

0.54 KB

  Unknown Artist - Unknown Title.log

4.58 KB

  Unknown Artist - Unknown Title.m3u

0.48 KB

  Unknown Title.cue

1.49 KB

 CD2310.jpg

255.30 KB

 fronte313.jpg

1.74 MB

 interno314.jpg

2.16 MB

 retro 2312.jpg

0.99 MB

 retro311.jpg

1.25 MB
 

tracker

leech seeds
 

Torrent description

AA VV    The Ultimate Tribute To Led Zeppelin (2008 2cd)[Eac Flac][colombo bt org] preview 0

[color=blue][size=18pt]\"AA.VV. -The Ultimate Tribute To Led Zeppelin (2008 2cd)[Eac Flac]\"[/size][/color]

AA VV    The Ultimate Tribute To Led Zeppelin (2008 2cd)[Eac Flac][colombo bt org] preview 1

AA VV    The Ultimate Tribute To Led Zeppelin (2008 2cd)[Eac Flac][colombo bt org] preview 2

[color=blue][font=Verdana]Titolo: AA.VV. - The Ultimate Tribute To Led Zeppelin
Anno: 2008
Etichetta: San Juan Music / ZYX Music
Genere: Hard Rock
Formato: Flac Level 8
Cover: sì (scansioni originali)
Fonte: CD originale
Edizione: San Juan Music / ZYX Music - 2008 - 2cd - Made In Germany
[/font][/color]

[code]Exact Audio Copy V0.99 prebeta 3 from 28. July 2007

EAC extraction logfile from 15. May 2008, 22:17

Unknown Artist / Unknown Title

Used drive : PLEXTOR DVDR PX-800A Adapter: 1 ID: 0

Read mode : Secure
Utilize accurate stream : Yes
Defeat audio cache : Yes
Make use of C2 pointers : No

Read offset correction : 48
Overread into Lead-In and Lead-Out : No
Fill up missing offset samples with silence : Yes
Delete leading and trailing silent blocks : No
Null samples used in CRC calculations : No
Used interface : Installed external ASPI interface
Gap handling : Appended to previous track

Used output format : Internal WAV Routines
Sample format : 44.100 Hz; 16 Bit; Stereo


TOC of the extracted CD

Track | Start | Length | Start sector | End sector
---------------------------------------------------------
1 | 0:00.00 | 3:11.69 | 0 | 14393
2 | 3:11.69 | 6:30.00 | 14394 | 43643
3 | 9:41.69 | 6:31.26 | 43644 | 72994
4 | 16:13.20 | 2:27.28 | 72995 | 84047
5 | 18:40.48 | 4:13.52 | 84048 | 103074
6 | 22:54.25 | 3:43.46 | 103075 | 119845
7 | 26:37.71 | 4:32.23 | 119846 | 140268
8 | 31:10.19 | 8:18.58 | 140269 | 177676


Track 1

Filename C:\\Documents and Settings\\Stefano\\Desktop\\AA.VV. - The Ultimate tribute to LZ (2cd 2008)\\CD1\\01 Track01.wav

Pre-gap length 0:00:02.00

Peak level 97.7 %
Track quality 99.9 %
Test CRC 385E9968
Copy CRC 385E9968
Track not present in AccurateRip database
Copy OK

Track 2

Filename C:\\Documents and Settings\\Stefano\\Desktop\\AA.VV. - The Ultimate tribute to LZ (2cd 2008)\\CD1\\02 Track02.wav

Pre-gap length 0:00:01.00

Peak level 95.4 %
Track quality 100.0 %
Test CRC 22C9E4F5
Copy CRC 22C9E4F5
Track not present in AccurateRip database
Copy OK

Track 3

Filename C:\\Documents and Settings\\Stefano\\Desktop\\AA.VV. - The Ultimate tribute to LZ (2cd 2008)\\CD1\\03 Track03.wav

Pre-gap length 0:00:02.00

Peak level 97.7 %
Track quality 100.0 %
Test CRC 9ED28076
Copy CRC 9ED28076
Track not present in AccurateRip database
Copy OK

Track 4

Filename C:\\Documents and Settings\\Stefano\\Desktop\\AA.VV. - The Ultimate tribute to LZ (2cd 2008)\\CD1\\04 Track04.wav

Pre-gap length 0:00:02.00

Peak level 98.8 %
Track quality 100.0 %
Test CRC 9C847B9D
Copy CRC 9C847B9D
Track not present in AccurateRip database
Copy OK

Track 5

Filename C:\\Documents and Settings\\Stefano\\Desktop\\AA.VV. - The Ultimate tribute to LZ (2cd 2008)\\CD1\\05 Track05.wav

Pre-gap length 0:00:02.00

Peak level 98.8 %
Track quality 99.9 %
Test CRC F7DA3A27
Copy CRC F7DA3A27
Track not present in AccurateRip database
Copy OK

Track 6

Filename C:\\Documents and Settings\\Stefano\\Desktop\\AA.VV. - The Ultimate tribute to LZ (2cd 2008)\\CD1\\06 Track06.wav

Pre-gap length 0:00:02.00

Peak level 98.8 %
Track quality 100.0 %
Test CRC 23C5EBD1
Copy CRC 23C5EBD1
Track not present in AccurateRip database
Copy OK

Track 7

Filename C:\\Documents and Settings\\Stefano\\Desktop\\AA.VV. - The Ultimate tribute to LZ (2cd 2008)\\CD1\\07 Track07.wav

Pre-gap length 0:00:02.00

Peak level 98.8 %
Track quality 99.9 %
Test CRC 57EE169F
Copy CRC 57EE169F
Track not present in AccurateRip database
Copy OK

Track 8

Filename C:\\Documents and Settings\\Stefano\\Desktop\\AA.VV. - The Ultimate tribute to LZ (2cd 2008)\\CD1\\08 Track08.wav

Pre-gap length 0:00:02.00

Peak level 98.8 %
Track quality 99.9 %
Test CRC 5F8A4799
Copy CRC 5F8A4799
Track not present in AccurateRip database
Copy OK


None of the tracks are present in the AccurateRip database

No errors occurred

End of status report
[/code]

[code]Exact Audio Copy V0.99 prebeta 3 from 28. July 2007

EAC extraction logfile from 15. May 2008, 22:38

Unknown Artist / Unknown Title

Used drive : PLEXTOR DVDR PX-800A Adapter: 1 ID: 0

Read mode : Secure
Utilize accurate stream : Yes
Defeat audio cache : Yes
Make use of C2 pointers : No

Read offset correction : 48
Overread into Lead-In and Lead-Out : No
Fill up missing offset samples with silence : Yes
Delete leading and trailing silent blocks : No
Null samples used in CRC calculations : No
Used interface : Installed external ASPI interface
Gap handling : Appended to previous track

Used output format : Internal WAV Routines
Sample format : 44.100 Hz; 16 Bit; Stereo


TOC of the extracted CD

Track | Start | Length | Start sector | End sector
---------------------------------------------------------
1 | 0:00.00 | 4:27.41 | 0 | 20065
2 | 4:27.41 | 3:46.06 | 20066 | 37021
3 | 8:13.47 | 6:11.68 | 37022 | 64914
4 | 14:25.40 | 5:36.45 | 64915 | 90159
5 | 20:02.10 | 4:30.49 | 90160 | 110458
6 | 24:32.59 | 6:47.66 | 110459 | 141049
7 | 31:20.50 | 4:44.57 | 141050 | 162406
8 | 36:05.32 | 5:56.26 | 162407 | 189132
9 | 42:01.58 | 6:06.51 | 189133 | 216633


Track 1

Filename C:\\Documents and Settings\\Stefano\\Desktop\\AA.VV. - The Ultimate tribute to LZ (2cd 2008)\\CD2\\01 Track01.wav

Pre-gap length 0:00:02.00

Peak level 97.7 %
Track quality 100.0 %
Test CRC 050EDE7D
Copy CRC 050EDE7D
Track not present in AccurateRip database
Copy OK

Track 2

Filename C:\\Documents and Settings\\Stefano\\Desktop\\AA.VV. - The Ultimate tribute to LZ (2cd 2008)\\CD2\\02 Track02.wav

Pre-gap length 0:00:01.74

Peak level 98.8 %
Track quality 100.0 %
Test CRC 5B289468
Copy CRC 5B289468
Track not present in AccurateRip database
Copy OK

Track 3

Filename C:\\Documents and Settings\\Stefano\\Desktop\\AA.VV. - The Ultimate tribute to LZ (2cd 2008)\\CD2\\03 Track03.wav

Pre-gap length 0:00:02.00

Peak level 98.8 %
Track quality 99.9 %
Test CRC F267F764
Copy CRC F267F764
Track not present in AccurateRip database
Copy OK

Track 4

Filename C:\\Documents and Settings\\Stefano\\Desktop\\AA.VV. - The Ultimate tribute to LZ (2cd 2008)\\CD2\\04 Track04.wav

Pre-gap length 0:00:02.00

Peak level 98.8 %
Track quality 100.0 %
Test CRC 1C49B94E
Copy CRC 1C49B94E
Track not present in AccurateRip database
Copy OK

Track 5

Filename C:\\Documents and Settings\\Stefano\\Desktop\\AA.VV. - The Ultimate tribute to LZ (2cd 2008)\\CD2\\05 Track05.wav

Pre-gap length 0:00:02.00

Peak level 98.8 %
Track quality 99.9 %
Test CRC EFEF8C03
Copy CRC EFEF8C03
Track not present in AccurateRip database
Copy OK

Track 6

Filename C:\\Documents and Settings\\Stefano\\Desktop\\AA.VV. - The Ultimate tribute to LZ (2cd 2008)\\CD2\\06 Track06.wav

Pre-gap length 0:00:02.00

Peak level 98.8 %
Track quality 100.0 %
Test CRC E0E66F11
Copy CRC E0E66F11
Track not present in AccurateRip database
Copy OK

Track 7

Filename C:\\Documents and Settings\\Stefano\\Desktop\\AA.VV. - The Ultimate tribute to LZ (2cd 2008)\\CD2\\07 Track07.wav

Pre-gap length 0:00:02.00

Peak level 98.8 %
Track quality 100.0 %
Test CRC C66E811E
Copy CRC C66E811E
Track not present in AccurateRip database
Copy OK

Track 8

Filename C:\\Documents and Settings\\Stefano\\Desktop\\AA.VV. - The Ultimate tribute to LZ (2cd 2008)\\CD2\\08 Track08.wav

Pre-gap length 0:00:02.00

Peak level 98.8 %
Track quality 100.0 %
Test CRC F177EBC9
Copy CRC F177EBC9
Track not present in AccurateRip database
Copy OK

Track 9

Filename C:\\Documents and Settings\\Stefano\\Desktop\\AA.VV. - The Ultimate tribute to LZ (2cd 2008)\\CD2\\09 Track09.wav

Pre-gap length 0:00:02.00

Peak level 98.8 %
Track quality 100.0 %
Test CRC 28C12D98
Copy CRC 28C12D98
Track not present in AccurateRip database
Copy OK


None of the tracks are present in the AccurateRip database

No errors occurred

End of status report
[/code]

AA VV    The Ultimate Tribute To Led Zeppelin (2008 2cd)[Eac Flac][colombo bt org] preview 3

[color=blue]CD1
01.good times bad time
02.bigly
03.dazed and confused
04.immigrant song
05.ramble on
06.rock and roll
07.d\'yer mak\'er
08.stairway to heaven

CD2
01.heartbreaker
02.dancin\' days
03.black dog
04.all my love
05.houses of the holy
06.when the levee breaks
07.whole lotta love
08.you shook me
09.fool in the rain
[/color]

AA VV    The Ultimate Tribute To Led Zeppelin (2008 2cd)[Eac Flac][colombo bt org] preview 4

AA VV    The Ultimate Tribute To Led Zeppelin (2008 2cd)[Eac Flac][colombo bt org] preview 5

[font=Verdana]
Ennesimo tributo ai LED ZEPPELIN. Sono solito snobbarli perché spesso sono mere speculazioni commerciali con risultati artistici davvero tristi, ma questo ho dovuto comprarlo per l’incredibile numero di nomi altisonanti della musica rock:
KEITH EMERSON in primis, poi ALBERT LEE, RICK WAKEMAN (Yes), ALAN WHITE (Yes), JOE LYN TURNER (Rainbow), RICK DERRINGER (Winter Brothers), STEVE LUKATHER (Toto), VINNIE COLAIUTA, DWEEZIL ZAPPA, TONY KAYE (Yes), ARTIMUS PYLE (Lynyrd Skynyrd), TONY FRANKLIN (Firm), STEVE MORSE (Dixie Dregs e Deep Purple), ERIC BLOOM (Blue OysterCult), BRIAN ROBERTSON (Thin Lizzy), PAT TRAVERS, BILLY SHEERWOOD, JACK RUSSELL (Great White) e qualche altro nome minore.
Molti pezzi sono cantatati da MICHAL WHITE, leader degli WHITE la prima tribute band dei LZ, attiva quando le tribute band proprio non esistevano. Michael conosce bene il materiale naturalmente, ma la sua voce ha perso parecchio rendendo le sue performance un po’ grottesche.
Discutibili poi sono molte delle versioni qui presentate: fedeli agli originali e quindi forse inutili e destinate inesorabilmente a perdere il confronto con le versioni dei LZ.

Le cose migliori:
D’YER MAKER, con la magica chitarra di Albert Lee;
DANCING DAYS cantata da John Wetton degli Asia e arricchita dalle tastiere di Geoff Downes anch’egli degli Asia;
BLACK DOG, con la magica introduzione di Keith Emerson che gioca con il riff di Black Dog suonato al piano citando poi con le tastiere l’intro di PIRATES degli ELP. Peccato per il cantato di Michael White davvero imbarazzante.
FOOL IN THE RAIN, vicino all’originale ma con qualche variazione davvero carina al piano grazie a Rick Wakeman. Michael White finalmente canta come si deve (nel registro basso).

Album per i fan degli Zep, per chi segue uno dei musicisti presenti o per qualche curioso.

(note di nonantolaslim maggio08)
[/font]

related torrents

Torrent name

health leech seeds Size
 

comments (0)

Main Menu