Sports related

The Damned United DVDrip 2009 DUBLIN5

  • Download 5x Faster
  • Download torrent
  • Direct Download
  • Rate this torrent +  |  -
The Damned United DVDrip 2009 DUBLIN5

Anonymous and Free Direct Download 300GB+


Torrent info

Name:The Damned United DVDrip 2009 DUBLIN5

Total Size: 696.39 MB

Magnet: Magnet Link

Seeds: 0

Leechers: 0

Stream: Watch Online @ Movie4u

Last Updated: 2012-04-14 14:11:21 (Update Now)

Torrent added: 2009-08-29 17:59:52



VPN For Torrents

Torrent Files List


THE.DAMNED.UNITED.DVDRIP.2009.avi (Size: 696.39 MB) (Files: 3)

 THE.DAMNED.UNITED.DVDRIP.2009.avi

696.26 MB

 THE.DAMNED.UNITED.DVDRIP.2009.srt

132.73 KB

 Torrent downloaded from Demonoid.com.txt

0.05 KB
 

Announce URL:

Torrent description

(PRESENTS)
****************
The Damned United DVDrip
===================================================================================
General
Complete name : THE.DAMNED.UNITED.DVDRIP.2009.avi
Format : AVI
Format/Info : Audio Video Interleave
File size : 696 MiB
Duration : 1h 33mn
Overall bit rate : 1 040 Kbps
Writing application : FairUse Wizard - http://fairusewizard.com
Writing library : The best and REALLY easy backup tool

Video
ID : 0
Format : MPEG-4 Visual
Format profile : [email protected]
Format settings, BVOP : Yes
Format settings, QPel : No
Format settings, GMC : No warppoints
Format settings, Matrix : Default (H.263)
Muxing mode : Packed bitstream
Codec ID : XVID
Codec ID/Hint : XviD
Duration : 1h 33mn
Bit rate : 902 Kbps
Width : 560 pixels
Height : 304 pixels
Display aspect ratio : 16:9
Frame rate : 25.000 fps
Resolution : 24 bits
Colorimetry : 4:2:0
Scan type : Progressive
Bits/(Pixel*Frame) : 0.212
Stream size : 604 MiB (87%)
Writing library : XviD 1.1.0 (UTC 2005-11-22)

Audio
ID : 1
Format : MPEG Audio
Format version : Version 1
Format profile : Layer 3
Codec ID : 55
Codec ID/Hint : MP3
Duration : 1h 33mn
Bit rate mode : Constant
Bit rate : 128 Kbps
Channel(s) : 2 channels
Sampling rate : 48.0 KHz
Resolution : 16 bits
Stream size : 85.7 MiB (12%)
Alignment : Aligned on interleaves
Interleave, duration : 40 ms (1.00 video frame)
Interleave, preload duration : 504 ms
Writing library : LAME3.97b
Encoding settings : -m j -V 4 -q 2 -lowpass 17 -b 128
===================================================================================
http://www.imdb.com/title/tt1226271/
===================================================================================
The Damned United DVDrip 2009 DUBLIN5 preview 0
===================================================================================
The Damned United DVDrip 2009 DUBLIN5 preview 1
===================================================================================
The Damned United DVDrip 2009 DUBLIN5 preview 2
===================================================================================

related torrents

Torrent name

health leech seeds Size
 


comments (0)

Main Menu