Sports related

Tae Bo Cardio Workout DVDRiP XViD SB0

  • Download 5x Faster
  • Download torrent
  • Direct Download
  • Rate this torrent +  |  -
Tae Bo Cardio Workout DVDRiP XViD SB0

Download FREE And Anonymously


Torrent info

Name:Tae Bo Cardio Workout DVDRiP XViD SB0

Total Size: 349.89 MB

Magnet: Magnet Link

Seeds: 0

Leechers: 0

Stream: Watch Full Movie @ Movie4u

Last Updated: 0000-00-00 00:00:00 (Update Now)

Torrent added: 2009-08-29 17:56:21



VPN For Torrents

Torrent Files List


Tae-Bo Cardio Workout DVDRiP XViD SB0.avi (Size: 349.89 MB) (Files: 2)

 Tae-Bo Cardio Workout DVDRiP XViD SB0.avi

349.88 MB

 Tae-Bo Cardio Workout DVDRiP XViD SB0.nfo

4.38 KB
 

Announce URL: http://movie-shack.org/announce.php

Torrent description

To download the file please signup to our site @ Movie-Shack.org
see u there soon.


*******************************************************************************
Tae-Bo Cardio Workout DVDRiP XViD SB0
*******************************************************************************
-------------------------------------------------------------------------------
General Information
-------------------------------------------------------------------------------
Type.................: Workout Video
-------------------------------------------------------------------------------
Post Information
-------------------------------------------------------------------------------
Posted by............: SB0

-------------------------------------------------------------------------------
Release Notes
-------------------------------------------------------------------------------
General
Complete name : Tae-Bo Cardio Workout DVDRiP XViD SB0.avi
Format : AVI
Format/Info : Audio Video Interleave
File size : 350 MiB
Duration : 44mn 24s
Overall bit rate : 1 101 Kbps
Writing application : VirtualDubMod 1.5.4.1 (build 2178/release)
Writing library : VirtualDubMod build 2178/release

Video
Format : MPEG-4 Visual
Format profile : Streaming [email protected]
Format settings, BVOP : Yes
Format settings, QPel : No
Format settings, GMC : No warppoints
Format settings, Matrix : Custom
Codec ID : XVID
Codec ID/Hint : XviD
Duration : 44mn 24s
Bit rate : 982 Kbps
Width : 304 pixels
Height : 224 pixels
Display aspect ratio : 4/3
Frame rate : 25.000 fps
Resolution : 24 bits
Colorimetry : 4:2:0
Scan type : Progressive
Bits/(Pixel*Frame) : 0.577
Stream size : 312 MiB (89%)
Writing library : XviD 1.1.0 (UTC 2005-11-22)

Audio
Format : MPEG Audio
Format version : Version 1
Format profile : Layer 3
Codec ID : 55
Codec ID/Hint : MP3
Duration : 44mn 24s
Bit rate mode : Variable
Bit rate : 107 Kbps
Nominal bit rate : 112 Kbps
Channel(s) : 2 channels
Sampling rate : 44.1 KHz
Resolution : 16 bits
Stream size : 33.9 MiB (10%)
Alignment : Aligned on interleaves
Interleave, duration : 26 ms (0.65 video frame)
Interleave, preload duration : 525 ms
Writing library : LAME3.97
Encoding settings : -m j -V 4 -q 2 -lowpass 15.6 --abr 112

This 40-minute workout is great for a beginner or intermediate exerciser. For
the beginner, it will provide a challenging yet balanced cardio workout. For the
intermediate level, it will provide a solid workout that will leave you
sweating, but not winded. For advanced exercisers, you might want to skip it,
but I'd still recommend it as a great, easy workout for you. If you're
intermediate-advanced and you want a really good kickboxing-based workout, try
the Elite Forces DVDs.

The bottom line with this DVD is, you'll get out of it what you put into it. If
you put in a lot of energy and movement, flexing your muscles and really putting
your heart and focus into it, you will really sweat and have a great time. Like
any other workout video, if you just go through the motions, you'll only get a
certain amount out of it, and will likely be bored with the soundtrack and
annoyed by other less-than-perfect elements (like the directionally-challenged
cues).

related torrents

Torrent name

health leech seeds Size

Tae bo cardio 2004

0 0 348.00 MB 0

Tae Bo Workout

9 1 348.94 MB 0

Tae Bo Cardio

0 0 348.94 MB 0
 


comments (0)

Main Menu

 

script data-cfasync="false" src="//d2ghscazvn398x.cloudfront.net/?cshgd=690275">