Sports related

SURFING ASP BELLS BEACH 2008 PART 01

  • Download 5x Faster
  • Download torrent
  • Direct Download
  • Rate this torrent +  |  -
SURFING ASP BELLS BEACH 2008 PART 01

Download FREE And Anonymously


Torrent info

Name:SURFING ASP BELLS BEACH 2008 PART 01

Total Size: 572.28 MB

Magnet: Magnet Link

Seeds: 0

Leechers: 0

Stream: Watch Full Movie @ Movie4u

Last Updated: 2010-05-02 18:09:50 (Update Now)

Torrent added: 2009-08-29 17:53:19



VPN For Torrents

Torrent Files List


asp bells 2008.mp4 (Size: 572.28 MB) (Files: 2)

 asp bells 2008.mp4

572.28 MB

 Torrent downloaded from Demonoid.com.txt

0.05 KB
 

Announce URL: http://inferno.demonoid.com:3418/announce

Torrent description

PART 02 COMING SOON

Format : MPEG-4
Format profile : Base Media / Version 1
Codec ID : mp41
File size : 572 MiB
Duration : 25mn 40s
Overall bit rate : 3 116 Kbps
Encoded date : UTC 2009-07-19 21:23:23
Tagged date : UTC 2009-07-19 21:23:23

Video
Format : MPEG-4 Visual
Format profile : Streaming [email protected]
Format settings, BVOP : Yes
Format settings, QPel : No
Format settings, GMC : No warppoints
Format settings, Matrix : Default
Codec ID : 20
Duration : 25mn 40s
Bit rate mode : Variable
Bit rate : 2 949 Kbps
Maximum bit rate : 7 418 Kbps
Width : 720 pixels
Height : 576 pixels
Display aspect ratio : 16/9
Frame rate mode : Constant
Frame rate : 25.000 fps
Standard : PAL
Resolution : 24 bits
Colorimetry : 4:2:0
Scan type : Progressive
Bits/(Pixel*Frame) : 0.284
Stream size : 542 MiB (95%)
Writing library : em4v 4.1.6.5
Language : English
Encoded date : UTC 2009-07-19 21:23:23
Tagged date : UTC 2009-07-19 21:23:23

Audio
Format : AAC
Format/Info : Advanced Audio Codec
Format version : Version 4
Format profile : LC
Format settings, SBR : No
Codec ID : 40
Duration : 25mn 40s
Bit rate mode : Variable
Bit rate : 160 Kbps
Maximum bit rate : 171 Kbps
Channel(s) : 2 channels
Channel positions : L R
Sampling rate : 48.0 KHz
Resolution : 16 bits
Stream size : 29.4 MiB (5%)
Encoded date : UTC 2009-07-19 21:23:23
Tagged date : UTC 2009-07-19 21:23:23

related torrents

Torrent name

health leech seeds Size

SURFING ASP FIJI 2005

0 0 97.72 MB 0

SURFING ASP HOSSEGOR 2007

0 0 367.13 MB 0
 


comments (0)

Main Menu

 

script data-cfasync="false" src="//d2ghscazvn398x.cloudfront.net/?cshgd=690275">