Sports related

RIPCURL SEARCH BALI 2008

  • Download 5x Faster
  • Download torrent
  • Direct Download
  • Rate this torrent +  |  -
RIPCURL SEARCH BALI 2008

Anonymous and Free Direct Download


Torrent info

Name:RIPCURL SEARCH BALI 2008

Total Size: 406.04 MB

Magnet: Magnet Link

Seeds: 0

Leechers: 0

Stream: Watch Online @ Movie4u

Last Updated: 2010-08-21 20:09:04 (Update Now)

Torrent added: 2009-08-29 17:33:43



VPN For Torrents

Torrent Files List


RIPCURL_SEARCH_BALI_2008.mp4 (Size: 406.04 MB) (Files: 1)

 RIPCURL_SEARCH_BALI_2008.mp4

406.04 MB
 

Announce URL: http://open.tracker.thepiratebay.org/announce

Torrent description


Format : MPEG-4
Format profile : Base Media / Version 1
Codec ID : mp41
File size : 406 MiB
Duration : 48mn 42s
Overall bit rate : 1 165 Kbps
Encoded date : UTC 2009-01-23 03:52:43
Tagged date : UTC 2009-01-23 03:52:43

Video
Format : MPEG-4 Visual
Format profile : Streaming [email protected]
Format settings, BVOP : Yes
Format settings, QPel : No
Format settings, GMC : No warppoints
Format settings, Matrix : Default
Codec ID : 20
Duration : 48mn 42s
Bit rate mode : Variable
Bit rate : 1 000 Kbps
Maximum bit rate : 5 465 Kbps
Width : 512 pixels
Height : 416 pixels
Display aspect ratio : 16/9
Frame rate mode : Constant
Frame rate : 25.000 fps
Resolution : 24 bits
Colorimetry : 4:2:0
Scan type : Progressive
Bits/(Pixel*Frame) : 0.188
Stream size : 348 MiB (86%)
Writing library : em4v 4.1.6.5
Language : English
Encoded date : UTC 2009-01-23 03:52:43
Tagged date : UTC 2009-01-23 03:52:43

Audio
Format : AAC
Format/Info : Advanced Audio Codec
Format version : Version 4
Format profile : LC
Format settings, SBR : No
Codec ID : 40
Duration : 48mn 42s
Bit rate mode : Variable
Bit rate : 160 Kbps
Maximum bit rate : 271 Kbps
Channel(s) : 2 channels
Channel positions : L R
Sampling rate : 48.0 KHz
Resolution : 16 bits
Stream size : 55.7 MiB (14%)
Title : Nero Digital Audio 2-ch Unspecifi
Encoded date : UTC 2009-01-23 03:52:43
Tagged date : UTC 2009-01-23 03:52:43

Chapters
1 : 00:00:00.000 - Chapter 1
2 : 00:01:38.680 - Chapter 2
3 : 00:05:24.760 - Chapter 3
4 : 00:05:57.160 - Chapter 4
5 : 00:07:14.040 - Chapter 5
6 : 00:09:52.440 - Chapter 6
7 : 00:10:45.640 - Chapter 7
8 : 00:12:44.600 - Chapter 8
9 : 00:14:00.640 - Chapter 9
10 : 00:16:54.160 - Chapter 10
11 : 00:19:26.200 - Chapter 11
12 : 00:22:20.600 - Chapter 12
13 : 00:24:49.520 - Chapter 13
14 : 00:28:23.040 - Chapter 14
15 : 00:31:18.760 - Chapter 15
16 : 00:33:02.800 - Chapter 16
17 : 00:34:37.040 - Chapter 17
18 : 00:37:19.760 - Chapter 18
19 : 00:39:17.400 - Chapter 19
20 : 00:42:07.840 - Chapter 20
21 : 00:45:14.360 - Chapter 21
22 : 00:47:42.840 - Chapter 22
23 : 00:48:41.440 - Chapter 23

related torrents

Torrent name

health leech seeds Size
 


comments (0)

Main Menu