Rock

(Eac Cue Flac)Eagles Hotel California (RockCity) (UF SPG)

  • Download 5x Faster
  • Download torrent
  • Direct Download
  • Rate this torrent +  |  -
(Eac Cue Flac)Eagles Hotel California (RockCity) (UF SPG)

Anonymous and free Direct Download 300GB+


Torrent info

Name:(Eac Cue Flac)Eagles Hotel California (RockCity) (UF SPG)

Total Size: 262.89 MB

Magnet: Magnet Link

Seeds: 0

Leechers: 0

Stream: Watch Online @ Movie4u

Last Updated: 2010-07-29 18:30:58 (Update Now)

Torrent added: 2009-08-29 17:22:14



VPN For Torrents

Torrent Files List


scans (Size: 262.89 MB) (Files: 7)

 scans

  Eagles - hotel california CD.jpg

1.14 MB

  Eagles - hotel california inside.jpg

1.68 MB

  Eagles - hotel california rear.jpg

0.99 MB

  hotel california front.jpg

1.71 MB

 The Eagles - Hotel California.cue

1.27 KB

 The Eagles - Hotel California.flac

257.37 MB

 The Eagles - Hotel California.log

9.74 KB
 

Announce URL: http://tracker.thepiratebay.org/announce

Torrent description

Exact Audio Copy V0.99 prebeta 5 from 4. May 2009

EAC extraction logfile from 7. June 2009, 17:24

The Eagles / Hotel California

Used drive : ASUS DRW-2014L1T Adapter: 3 ID: 0

Read mode : Secure
Utilize accurate stream : Yes
Defeat audio cache : No
Make use of C2 pointers : No

Read offset correction : 6
Overread into Lead-In and Lead-Out : No
Fill up missing offset samples with silence : Yes
Delete leading and trailing silent blocks : No
Null samples used in CRC calculations : Yes
Used interface : Installed external ASPI interface

Used output format : User Defined Encoder
Selected bitrate : 1024 kBit/s
Quality : High
Add ID3 tag : No
Command line compressor : C:\Program Files\Exact Audio Copy\FLAC\FLAC.EXE
Additional command line options : -8 -V -T "ARTIST=%a" -T "TITLE=%t" -T "ALBUM=%g" -T "DATE=%y" -T "TRACKNUMBER=%n" -T "GENRE=%m” -T "COMMENT=%e" %s -o %d


TOC of the extracted CD

Track | Start | Length | Start sector | End sector
---------------------------------------------------------
1 | 0:00.00 | 6:30.20 | 0 | 29269
2 | 6:30.20 | 5:03.62 | 29270 | 52056
3 | 11:34.07 | 4:46.08 | 52057 | 73514
4 | 16:20.15 | 4:56.32 | 73515 | 95746
5 | 21:16.47 | 1:23.20 | 95747 | 101991
6 | 22:39.67 | 4:09.08 | 101992 | 120674
7 | 26:49.00 | 3:58.52 | 120675 | 138576
8 | 30:47.52 | 5:10.53 | 138577 | 161879
9 | 35:58.30 | 7:28.55 | 161880 | 195534


Range status and errors

Selected range

Filename C:\Users\massimo\Desktop\hotel california\The Eagles - Hotel California.wav

Peak level 99.8 %
Range quality 100.0 %
Test CRC 29F14859
Copy CRC 29F14859
Copy OK

No errors occurred


AccurateRip summary

Track 1 accurately ripped (confidence 167) [EEA6EA94]
Track 2 accurately ripped (confidence 166) [1F93AEBD]
Track 3 accurately ripped (confidence 166) [E69D74D9]
Track 4 accurately ripped (confidence 166) [2E285284]
Track 5 accurately ripped (confidence 165) [5B6A9D4D]
Track 6 accurately ripped (confidence 164) [D3E20F0B]
Track 7 accurately ripped (confidence 164) [4038E20E]
Track 8 accurately ripped (confidence 165) [50ED6B29]
Track 9 accurately ripped (confidence 160) [0F830884]

All tracks accurately ripped

End of status report

------------------------------------------------------------

Exact Audio Copy V0.99 prebeta 5 from 4. May 2009

EAC extraction logfile from 7. June 2009, 17:41

The Eagles / Hotel California

Used drive : ASUS DRW-2014L1T Adapter: 3 ID: 0

Read mode : Secure
Utilize accurate stream : Yes
Defeat audio cache : No
Make use of C2 pointers : No

Read offset correction : 6
Overread into Lead-In and Lead-Out : No
Fill up missing offset samples with silence : Yes
Delete leading and trailing silent blocks : No
Null samples used in CRC calculations : Yes
Used interface : Installed external ASPI interface
Gap handling : Not detected, thus appended to previous track

Used output format : User Defined Encoder
Selected bitrate : 1024 kBit/s
Quality : High
Add ID3 tag : No
Command line compressor : C:\Program Files\Exact Audio Copy\FLAC\FLAC.EXE
Additional command line options : -8 -V -T "ARTIST=%a" -T "TITLE=%t" -T "ALBUM=%g" -T "DATE=%y" -T "TRACKNUMBER=%n" -T "GENRE=%m” -T "COMMENT=%e" %s -o %d


TOC of the extracted CD

Track | Start | Length | Start sector | End sector
---------------------------------------------------------
1 | 0:00.00 | 6:30.20 | 0 | 29269
2 | 6:30.20 | 5:03.62 | 29270 | 52056
3 | 11:34.07 | 4:46.08 | 52057 | 73514
4 | 16:20.15 | 4:56.32 | 73515 | 95746
5 | 21:16.47 | 1:23.20 | 95747 | 101991
6 | 22:39.67 | 4:09.08 | 101992 | 120674
7 | 26:49.00 | 3:58.52 | 120675 | 138576
8 | 30:47.52 | 5:10.53 | 138577 | 161879
9 | 35:58.30 | 7:28.55 | 161880 | 195534


Track 1

Filename C:\Users\massimo\Desktop\hotel california\01. The Eagles - Hotel California.wav

Peak level 99.8 %
Track quality 100.0 %
Test CRC 7F684C35
Copy CRC 7F684C35
Accurately ripped (confidence 167) [EEA6EA94]
Copy OK

Track 2

Filename C:\Users\massimo\Desktop\hotel california\02. The Eagles - New Kid In Town.wav

Peak level 99.8 %
Track quality 99.9 %
Test CRC 4D433959
Copy CRC 4D433959
Accurately ripped (confidence 166) [1F93AEBD]
Copy OK

Track 3

Filename C:\Users\massimo\Desktop\hotel california\03. The Eagles - Life In The Fast Lane.wav

Peak level 99.8 %
Track quality 100.0 %
Test CRC 93FB6A5B
Copy CRC 93FB6A5B
Accurately ripped (confidence 166) [E69D74D9]
Copy OK

Track 4

Filename C:\Users\massimo\Desktop\hotel california\04. The Eagles - Wasted Time.wav

Peak level 99.8 %
Track quality 100.0 %
Test CRC 1655B72D
Copy CRC 1655B72D
Accurately ripped (confidence 166) [2E285284]
Copy OK

Track 5

Filename C:\Users\massimo\Desktop\hotel california\05. The Eagles - Wasted Time (Reprise).wav

Peak level 99.8 %
Track quality 100.0 %
Test CRC EC1E5ED4
Copy CRC EC1E5ED4
Accurately ripped (confidence 165) [5B6A9D4D]
Copy OK

Track 6

Filename C:\Users\massimo\Desktop\hotel california\06. The Eagles - Victim Of Love.wav

Peak level 99.8 %
Track quality 100.0 %
Test CRC B8353767
Copy CRC B8353767
Accurately ripped (confidence 164) [D3E20F0B]
Copy OK

Track 7

Filename C:\Users\massimo\Desktop\hotel california\07. The Eagles - Pretty Maids All In A Row.wav

Peak level 99.8 %
Track quality 100.0 %
Test CRC 091009CF
Copy CRC 091009CF
Accurately ripped (confidence 164) [4038E20E]
Copy OK

Track 8

Filename C:\Users\massimo\Desktop\hotel california\08. The Eagles - Try And Love Again.wav

Peak level 99.8 %
Track quality 100.0 %
Test CRC 56C3CC22
Copy CRC 56C3CC22
Accurately ripped (confidence 165) [50ED6B29]
Copy OK

Track 9

Filename C:\Users\massimo\Desktop\hotel california\09. The Eagles - The Last Resort.wav

Peak level 99.8 %
Track quality 100.0 %
Test CRC 32B2A7A5
Copy CRC 32B2A7A5
Accurately ripped (confidence 160) [0F830884]
Copy OK


All tracks accurately ripped

No errors occurred

End of status report

------------------------------------------------------------

Exact Audio Copy V0.99 prebeta 5 from 4. May 2009

EAC extraction logfile from 7. June 2009, 18:31

The Eagles / Hotel California

Used drive : ASUS DRW-2014L1T Adapter: 3 ID: 0

Read mode : Secure
Utilize accurate stream : Yes
Defeat audio cache : No
Make use of C2 pointers : No

Read offset correction : 6
Overread into Lead-In and Lead-Out : No
Fill up missing offset samples with silence : Yes
Delete leading and trailing silent blocks : No
Null samples used in CRC calculations : Yes
Used interface : Installed external ASPI interface

Used output format : User Defined Encoder
Selected bitrate : 1024 kBit/s
Quality : High
Add ID3 tag : No
Command line compressor : C:\Program Files\FLAC\flac.exe
Additional command line options : -8 -V -T "ARTIST=%a" -T "TITLE=%t" -T "ALBUM=%g" -T "DATE=%y" -T "TRACKNUMBER=%n" -T "GENRE=%m" -T "COMMENT=%e" %s -o %d


TOC of the extracted CD

Track | Start | Length | Start sector | End sector
---------------------------------------------------------
1 | 0:00.00 | 6:30.20 | 0 | 29269
2 | 6:30.20 | 5:03.62 | 29270 | 52056
3 | 11:34.07 | 4:46.08 | 52057 | 73514
4 | 16:20.15 | 4:56.32 | 73515 | 95746
5 | 21:16.47 | 1:23.20 | 95747 | 101991
6 | 22:39.67 | 4:09.08 | 101992 | 120674
7 | 26:49.00 | 3:58.52 | 120675 | 138576
8 | 30:47.52 | 5:10.53 | 138577 | 161879
9 | 35:58.30 | 7:28.55 | 161880 | 195534


Range status and errors

Selected range

Filename C:\Users\massimo\Desktop\hotel california\The Eagles - Hotel California.wav

Peak level 99.8 %
Range quality 100.0 %
Test CRC 29F14859
Copy CRC 29F14859
Copy OK

No errors occurred


AccurateRip summary

Track 1 accurately ripped (confidence 167) [EEA6EA94]
Track 2 accurately ripped (confidence 166) [1F93AEBD]
Track 3 accurately ripped (confidence 166) [E69D74D9]
Track 4 accurately ripped (confidence 166) [2E285284]
Track 5 accurately ripped (confidence 165) [5B6A9D4D]
Track 6 accurately ripped (confidence 164) [D3E20F0B]
Track 7 accurately ripped (confidence 164) [4038E20E]
Track 8 accurately ripped (confidence 165) [50ED6B29]
Track 9 accurately ripped (confidence 160) [0F830884]

All tracks accurately ripped

End of status report

related torrents

Torrent name

health leech seeds Size
 


comments (0)

Main Menu