Sports related

formula 1 portugal 85 86 89

  • Download 5x Faster
  • Download torrent
  • Direct Download
  • Rate this torrent +  |  -
formula 1 portugal 85 86 89

Free and Direct Download with Usenet.nl 300GB+ free


Torrent info

Name:formula 1 portugal 85 86 89

Total Size: 2.05 GB

Magnet: Magnet Link

Seeds: 0

Leechers: 0

Stream: Watch Online @ Movie4u

Last Updated: 2009-12-02 15:17:31 (Update Now)

Torrent added: 2009-08-29 16:35:35





Torrent Files List


formula 1 portugal 1985.avi (Size: 2.05 GB) (Files: 3)

 formula 1 portugal 1985.avi

699.91 MB

 formula 1 portugal 86.avi

699.90 MB

 formula 1 portugal 89.avi

699.93 MB
 

Announce URL: http://open.tracker.thepiratebay.org/announce

Torrent description

General
Complete name : G:\\portugal\\formula 1 portugal 1985.avi
Format : AVI
Format/Info : Audio Video Interleave
File size : 700 MiB
Duration : 38mn 22s
Overal bit rate : 2550 Kbps
Writing application : FairUse Wizard - http://fairusewizard.com
Writing library : The best and REALLY easy backup tool

Video
Format : MPEG-4 Visual
Format profile : Streaming [email protected]
Format settings, BVOP : Yes
Format settings, QPel : No
Format settings, GMC : No warppoints
Format settings, Matrix : Default
Muxing mode : Packet Bitstream
Codec ID : XVID
Codec ID/Hint : XviD
Duration : 38mn 22s
Bit rate : 2412 Kbps
Width : 720 pixels
Height : 512 pixels
Display aspect ratio : 1.406
Frame rate : 25.000 fps
Resolution : 8 bits
Colorimetry : 4:2:0
Scan type : Progressive
Bits/(Pixel*Frame) : 0.262
Stream size : 662 MiB
Writing library : XviD 1.2.0.dev47 (UTC 2006-11-01)

Audio
Format : MPEG Audio
Format version : Version 1
Format profile : Layer 3
Codec ID : 55
Codec ID/Hint : MP3
Duration : 38mn 22s
Bit rate mode : Constant
Bit rate : 128 Kbps
Minimum bit rate : 128 Kbps
Channel(s) : 2 channels
Sampling rate : 48.0 KHz
Resolution : 16 bits
Stream size : 35.1 MiB
Writing library : LAME3.97
Encoding settings : CBR

General
Complete name : G:\\portugal\\formula 1 portugal 86.avi
Format : AVI
Format/Info : Audio Video Interleave
File size : 700 MiB
Duration : 34mn 25s
Overal bit rate : 2842 Kbps
Writing application : FairUse Wizard - http://fairusewizard.com
Writing library : The best and REALLY easy backup tool

Video
Format : MPEG-4 Visual
Format profile : Streaming [email protected]
Format settings, BVOP : Yes
Format settings, QPel : No
Format settings, GMC : No warppoints
Format settings, Matrix : Default
Muxing mode : Packet Bitstream
Codec ID : XVID
Codec ID/Hint : XviD
Duration : 34mn 25s
Bit rate : 2704 Kbps
Width : 720 pixels
Height : 512 pixels
Display aspect ratio : 1.406
Frame rate : 25.000 fps
Resolution : 8 bits
Colorimetry : 4:2:0
Scan type : Progressive
Bits/(Pixel*Frame) : 0.293
Stream size : 666 MiB
Writing library : XviD 1.2.0.dev47 (UTC 2006-11-01)

Audio
Format : MPEG Audio
Format version : Version 1
Format profile : Layer 3
Codec ID : 55
Codec ID/Hint : MP3
Duration : 34mn 25s
Bit rate mode : Constant
Bit rate : 128 Kbps
Minimum bit rate : 128 Kbps
Channel(s) : 2 channels
Sampling rate : 48.0 KHz
Resolution : 16 bits
Stream size : 31.5 MiB
Writing library : LAME3.97
Encoding settings : CBR

General
Complete name : G:\\portugal\\formula 1 portugal 89.avi
Format : AVI
Format/Info : Audio Video Interleave
File size : 700 MiB
Duration : 34mn 2s
Overal bit rate : 2875 Kbps
Writing application : FairUse Wizard - http://fairusewizard.com
Writing library : The best and REALLY easy backup tool

Video
Format : MPEG-4 Visual
Format profile : Streaming [email protected]
Format settings, BVOP : Yes
Format settings, QPel : No
Format settings, GMC : No warppoints
Format settings, Matrix : Default
Muxing mode : Packet Bitstream
Codec ID : XVID
Codec ID/Hint : XviD
Duration : 34mn 2s
Bit rate : 2737 Kbps
Width : 720 pixels
Height : 512 pixels
Display aspect ratio : 1.406
Frame rate : 25.000 fps
Resolution : 8 bits
Colorimetry : 4:2:0
Scan type : Progressive
Bits/(Pixel*Frame) : 0.297
Stream size : 666 MiB
Writing library : XviD 1.2.0.dev47 (UTC 2006-11-01)

Audio
Format : MPEG Audio
Format version : Version 1
Format profile : Layer 3
Codec ID : 55
Codec ID/Hint : MP3
Duration : 34mn 2s
Bit rate mode : Constant
Bit rate : 128 Kbps
Minimum bit rate : 128 Kbps
Channel(s) : 2 channels
Sampling rate : 48.0 KHz
Resolution : 16 bits
Stream size : 31.2 MiB
Writing library : LAME3.97
Encoding settings : CBR

ENJOY AND PLEASE SEED
GBABIS 2008

related torrents

Torrent name

health leech seeds Size

Wals Cristina [sets 86 89]

0 2 199.00 MB 0

Greatest_hits 86 89

0 0 1.00 GB 0
 

comments (0)

Main Menu