Sports related

FORMULA 1 FRANCE'08 avi RACE(original sound)

  • Download 5x Faster
  • Download torrent
  • Direct Download
  • Rate this torrent +  |  -
FORMULA 1 FRANCE'08 avi RACE(original sound)

Free and Direct Download with Usenet.nl 300GB+ free


Torrent info

Name:FORMULA 1 FRANCE'08 avi RACE(original sound)

Total Size: 699.18 MB

Magnet: Magnet Link

Seeds: 0

Leechers: 0

Stream: Watch Online @ Movie4u

Last Updated: 2010-04-15 07:15:37 (Update Now)

Torrent added: 2009-08-29 16:35:22





Torrent Files List


formula1 france '08.avi (Size: 699.18 MB) (Files: 1)

 formula1 france '08.avi

699.18 MB
 

Announce URL: http://open.tracker.thepiratebay.org/announce

Torrent description

General
Complete name : D:\formula1 france '08.avi
Format : AVI
Format/Info : Audio Video Interleave
File size : 699 MiB
Duration : 1h 34mn
Overal bit rate : 1033 Kbps
Writing application : FairUse Wizard - http://fairusewizard.com
Writing library : The best and REALLY easy backup tool

Video
Format : MPEG-4 Visual
Format profile : Streaming [email protected]
Format settings, BVOP : Yes
Format settings, QPel : No
Format settings, GMC : No warppoints
Format settings, Matrix : Default
Muxing mode : Packet Bitstream
Codec ID : XVID
Codec ID/Hint : XviD
Duration : 1h 34mn
Bit rate : 895 Kbps
Width : 608 pixels
Height : 320 pixels
Display aspect ratio : 1.900
Frame rate : 25.000 fps
Resolution : 8 bits
Colorimetry : 4:2:0
Scan type : Progressive
Bits/(Pixel*Frame) : 0.184
Stream size : 606 MiB
Writing library : XviD 1.2.0.dev47 (UTC 2006-11-01)

Audio
Format : MPEG Audio
Format version : Version 1
Format profile : Layer 3
Codec ID : 55
Codec ID/Hint : MP3
Duration : 1h 34mn
Bit rate mode : Constant
Bit rate : 128 Kbps
Minimum bit rate : 128 Kbps
Channel(s) : 2 channels
Sampling rate : 48.0 KHz
Resolution : 16 bits
Stream size : 86.7 MiB
Writing library : LAME3.97
Encoding settings : CBR

ENJOY AND PLEASE SEED
GBABIS2008

related torrents

Torrent name

health leech seeds Size
 

comments (0)

Main Menu