Sci-Fi

[most wanted] Mission To Mars 2000 Deutsch DVDrip Xvid

  • Download 5x Faster
  • Download torrent
  • Direct Download
  • Rate this torrent +  |  -
[most wanted] Mission To Mars 2000 Deutsch DVDrip Xvid

Anonymous and Free Direct Download 300GB+


Torrent info

Name:[most wanted] Mission To Mars 2000 Deutsch DVDrip Xvid

Total Size: 938.39 MB

Magnet: Magnet Link

Seeds: 0

Leechers: 0

Stream: Watch Online @ Movie4u

Last Updated: 2015-09-06 20:25:01 (Update Now)

Torrent added: 2009-08-29 15:20:45



VPN For Torrents

Torrent Files List


bildchen.jpg (Size: 938.39 MB) (Files: 4)

 bildchen.jpg

17.58 KB

 f-95713-1.jpg

53.59 KB

 info.txt

3.15 KB

 Mission To Mars.avi

938.32 MB
 

tracker

leech seeds
 

Torrent description


# Darsteller: Gary Sinise, Tim Robbins, Don Cheadle
# Regisseur(e): Brian De Palma
# Komponist: Ennio Morricone
# Format: 640x480 192kBit/s
# Sprache: Deutsch
# FSK: Freigegeben ab 12 Jahren
# Erscheinungstermin: 28. November 2000
# Produktionsjahr: 2000
# Spieldauer: 109 Minuten


Im Jahr 2020 gelingt es einer Gruppe von Astronauten unter Leitung von Luke Graham, zum Mars zu fliegen und erfolgreich auf der Oberflche des roten Planeten zu landen. Gleich beim ersten Erkundungsgang geraten sie jedoch in einen heftigen Wirbelsturm, und es gelingt Luke gerade noch, einen Hilferuf in Richtung Erde abzuschicken. Dort wird eilig eine Rettungsmannschaft zusammengestellt, die hinterherreisen und nach berlebenden suchen soll.

Mit an Bord auf dem beschwerlichen Flug sind Commander Woody Blake und seine Frau Terri, Co-Pilot Jim McConnell sowie der Techniker Phil Ohlmyer. Jim, der noch immer um seine verstorbene Frau Maggie trauert, wird gegen den Willen des Missiondirektors Ramier Beck mitgeschickt, da er wie kein anderer die Beschaffenheit des Mars kennt.

Jim sieht sich noch einmal ein Video seiner Frau an, die darber philosophiert, dass es die Bestimmung der Menschen ist, auf anderen Welten anderes Leben zu finden. Als die Crew danach das Landemanver probt, durchschlgt ein Meteoritensplitter die Hlleund Ohlmyers Hand. Sauerstoff entweicht, der Innendruck des Raumschiffes sinkt. Mit vereinten Krften knnen sie das Leck schlieen, aber danach wird die Zeit bis zur Landung so knapp, dass sie weitere schwere Schden an einer Kraftstoffleitung bersehen.

Format : AVI
Format/Info : Audio Video Interleave
Dateigre : 938 MiB
Duration : 1h 49min
Gesamte Bitrate : 1202 Kbps

Video
Format : MPEG-4 Visual
Format settings, BVOP : Nein
Format settings, QPel : Nein
Format settings, GMC : No warpoints
Format settings, Matrix : Default
Codec ID : XVID
Codec ID/Hint : XviD
Duration : 1h 49min
Bitrate : 1002 Kbps
Breite : 640 Pixel
Höhe : 480 Pixel
Bildseitenverhältnis : 4/3
Bildwiederholungsrate : 25.000 FPS
Auflösung : 8 bits
Colorimetry : 4:2:0
Scan type : Progressive
Bits/(Pixel*Frame) : 0.131
Stream size : 783 MiB
verwendete Encoder-Bibliothek : XviD 1.1.2 (UTC 2006-11-01)

Audio
Format : MPEG Audio
Format version : Version 1
Format profile : Layer 3
Codec ID : 55
Codec ID/Hint : MP3
Duration : 1h 49min
Bitraten-Modus : Constant
Bitrate : 192 Kbps
Kanäle : 2 Kanäle
Samplingrate : 44.1 KHz
Auflösung : 16 bits
Stream size : 150 MiB

related torrents

Torrent name

health leech seeds Size
 


comments (0)

Main Menu