Sci-Fi

VIRUS THE MOVIE 1999 DEWSTRR

  • Download 5x Faster
  • Download torrent
  • Direct Download
  • Rate this torrent +  |  -
VIRUS THE MOVIE 1999 DEWSTRR

Free and Direct Download with Usenet.nl 300GB+ free


Torrent info

Name:VIRUS THE MOVIE 1999 DEWSTRR

Total Size: 1.09 GB

Magnet: Magnet Link

Seeds: 13

Leechers: 8

Stream: Watch Online @ Movie4u

Last Updated: 0000-00-00 00:00:00 (Update Now)

Torrent added: 2009-08-29 15:00:51





Torrent Files List


Torrent_downloaded_from_Demonoid.com.txt (Size: 1.09 GB) (Files: 15)

 Torrent_downloaded_from_Demonoid.com.txt

0.05 KB

 VIRUS THE MOVIE 1999.NFO

3.34 KB

 VIRUS.avi

1.09 GB

 VIRUS.THE MOVIE 1999.DEWSTRR.sfv

1.78 KB

 VRS 1.jpg

19.30 KB

 VRS 10.jpg

14.89 KB

 VRS 2.jpg

16.89 KB

 VRS 3.jpg

15.78 KB

 VRS 4.jpg

19.75 KB

 VRS 5.jpg

14.98 KB

 VRS 6.jpg

20.13 KB

 VRS 7.jpg

9.59 KB

 VRS 8.jpg

23.52 KB

 VRS 9.jpg

18.26 KB

 VRS CP.jpg

31.54 KB
 

Announce URL: http://inferno.demonoid.com:3409/announce

Torrent description

VIRUS THE MOVIE 1999 DVDRIP

Action | Horror | Thriller | Sci-Fi

A ghostly ship looms silently ahead as the crippled, ocean-going, salvage tug Sea Star approaches. The Sea Star crew, their ship slowly sinking, has sought refuge in the eerie calm of the eye of a typhoon to make repairs and hopefully avert disaster. But something's terribly wrong. The ship, a Russian science vessel bristling with high-tech radar, electronics and other wonders, appears to be deserted. Unfortunately for the crew of the Sea Star, nothing could be further from the truth. Shelter from the storm turns into terror on board as they find themselves stalked by a mutating alien life form that has traveled across time and space, an energy force unlike any in the universe. It is powerful. Intelligent. And it has found the perfect planet to inhabit. Now, in order to survive, it must destroy the one threat to its existence: a virus called man.

VIRUS THE MOVIE 1999 DEWSTRR preview 0

http://www.imdb.com/title/tt0120458/

Format : AVI
Format/Info : Audio Video Interleave
File size : 1.09 GiB
Duration : 1h 39mn
Overall bit rate : 1 575 Kbps
Writing application : VirtualDubMod 1.5.4.1 (build 2178/release)
Writing library : VirtualDubMod build 2178/release

Video
Format : MPEG-4 Visual
Format settings, BVOP : Yes
Format settings, QPel : No
Format settings, GMC : No warppoints
Format settings, Matrix : Default
Codec ID : DX50
Codec ID/Hint : DivX 5
Duration : 1h 39mn
Bit rate : 1 376 Kbps
Width : 704 pixels
Height : 304 pixels
Display aspect ratio : 2.35
Frame rate : 23.976 fps
Resolution : 24 bits
Colorimetry : 4:2:0
Scan type : Progressive
Bits/(Pixel*Frame) : 0.268
Stream size : 979 MiB (87%)
Writing library : DivX 2816

Audio
Format : AC-3
Format/Info : Audio Coding 3
Format profile : Dolby Digital
Codec ID : 2000
Duration : 1h 39mn
Bit rate mode : Constant
Bit rate : 192 Kbps
Channel(s) : 2 channels
Channel positions : L R
Sampling rate : 48.0 KHz
Stream size : 137 MiB (12%)
Alignment : Split accross interleaves
Interleave, duration : 96 ms (2.30 video frames)
Interleave, preload duration : 96 ms
Language : English

General
Complete name : VIRUS.THE MOVIE 1999.DEWSTRR.sfv
File size : 1.78 KiB

General
Complete name : VIRUS.THE MOVIE 1999.DEWSTRR\Torrent_downloaded_from_Demonoid.com.txt
File size : 47.0 Bytes
VIRUS THE MOVIE 1999 DEWSTRR preview 1
VIRUS THE MOVIE 1999 DEWSTRR preview 2
VIRUS THE MOVIE 1999 DEWSTRR preview 3
VIRUS THE MOVIE 1999 DEWSTRR preview 4
VIRUS THE MOVIE 1999 DEWSTRR preview 5
VIRUS THE MOVIE 1999 DEWSTRR preview 6
VIRUS THE MOVIE 1999 DEWSTRR preview 7
VIRUS THE MOVIE 1999 DEWSTRR preview 8
VIRUS THE MOVIE 1999 DEWSTRR preview 9
VIRUS THE MOVIE 1999 DEWSTRR preview 10
burned with windows [with a couple of other movies on a disk] and played on my philips divx ultra certified dvd player
be sure to set your dvd player on the correct aspect ratio

related torrents

Torrent name

health leech seeds Size
 

comments (0)

Main Menu