Sci-Fi

V FOR VENDETTA DEWSTRR

  • Download 5x Faster
  • Download torrent
  • Direct Download
  • Rate this torrent +  |  -
V FOR VENDETTA DEWSTRR

Anonymous and Free Direct Download 300GB+


Torrent info

Name:V FOR VENDETTA DEWSTRR

Total Size: 1.36 GB

Magnet: Magnet Link

Seeds: 0

Leechers: 0

Stream: Watch Online @ Movie4u

Last Updated: 2009-12-02 13:07:00 (Update Now)

Torrent added: 2009-08-29 14:58:28



VPN For Torrents

Torrent Files List


2-27-2009 11-41-26 PM.jpg (Size: 1.36 GB) (Files: 17)

 2-27-2009 11-41-26 PM.jpg

17.38 KB

 2-27-2009 11-48-12 PM.jpg

14.04 KB

 2-27-2009 11-52-03 PM.jpg

11.91 KB

 2-27-2009 11-52-25 PM.jpg

12.83 KB

 2-27-2009 11-54-47 PM.jpg

22.25 KB

 2-27-2009 11-55-08 PM.jpg

11.48 KB

 2-28-2009 12-02-08 AM.jpg

15.61 KB

 2-28-2009 12-03-00 AM.jpg

12.88 KB

 2-28-2009 12-05-47 AM.jpg

17.33 KB

 2-28-2009 12-06-54 AM.jpg

9.81 KB

 2-28-2009 12-07-58 AM.jpg

9.29 KB

 2-28-2009 12-09-58 AM.jpg

17.51 KB

 2-28-2009 12-14-13 AM.jpg

12.30 KB

 Torrent_downloaded_from_Demonoid.com.txt

0.05 KB

 V FOR VANDETTA.DEWSTRR.divx

1.36 GB

 V FOR VANDETTA.NFO

3.27 KB

 VFV.SFV.sfv

2.24 KB
 

Announce URL: http://inferno.demonoid.com:3407/announce

Torrent description

V FOR VANDETTA DVDRIP/AVI

ACTION SCI-FI THRILLER

Remember, remember the 5th of November, the gun powder treason and plot. I know of no reason why the gun powder treason should ever be forgot.

a man [V-Hugo Weaving] survives the biological war weapon testing by the government on the people and becomes somewhat of a superhero who decides to blow up parliament like Guy Fawkes of the XVII century tried to do but was caught and hanged, first he storms the national tv broadcasting station to get his message out and there he meets Evey [Natalie Portman] who first decides to help but later betrays him and then after she learns the story of what made him what he is she again decides to help with his mission to blow up parliament in futuristic fascist Great Britain

http://www.imdb.com/title/tt0434409/

Video
Format : MPEG-4 Visual
Format settings, BVOP : Yes
Format settings, QPel : No
Format settings, GMC : No warppoints
Format settings, Matrix : Default
Muxing mode : Packed bitstream
Codec ID : DX50
Codec ID/Hint : DivX 5
Duration : 1h 58mn
Bit rate : 1 501 Kbps
Width : 640 pixels
Height : 480 pixels
Display aspect ratio : 4/3
Frame rate : 25.000 fps
Resolution : 24 bits
Colorimetry : 4:2:0
Scan type : Progressive
Bits/(Pixel*Frame) : 0.195
Stream size : 1.25 GiB (92%)
Title : Video
Writing library : DivX 6.8.2 (UTC 2008-05-17)

Audio
Format : AC-3
Format/Info : Audio Coding 3
Codec ID : 2000
Duration : 1h 58mn
Bit rate mode : Constant
Bit rate : 128 Kbps
Channel(s) : 2 channels
Channel positions : L R
Sampling rate : 48.0 KHz
Stream size : 109 MiB (8%)
Alignment : Split accross interleaves
Interleave, duration : 40 ms (1.00 video frame)
Interleave, preload duration : 500 ms

General
Complete name : VFV.sfv
File size : 2.24 KiB

General
Complete name : V FOR VANDETTA.DEWSTRR\Torrent_downloaded_from_Demonoid.com.txt
File size : 47.0 Bytes
V FOR VENDETTA DEWSTRR preview 0
V FOR VENDETTA DEWSTRR preview 1
V FOR VENDETTA DEWSTRR preview 2
V FOR VENDETTA DEWSTRR preview 3
V FOR VENDETTA DEWSTRR preview 4
V FOR VENDETTA DEWSTRR preview 5
V FOR VENDETTA DEWSTRR preview 6
V FOR VENDETTA DEWSTRR preview 7
V FOR VENDETTA DEWSTRR preview 8
V FOR VENDETTA DEWSTRR preview 9
V FOR VENDETTA DEWSTRR preview 10
V FOR VENDETTA DEWSTRR preview 11
V FOR VENDETTA DEWSTRR preview 12
burned with windows [with a couple of other movies on a disk] and played on my philips divx ultra certified dvd player
be sure to set the correct aspect ratio for full picture

related torrents

Torrent name

health leech seeds Size
 


comments (0)

Main Menu