Sci-Fi

Transformers [2007] DVDRip N!CK [Re Rls]

  • Download 5x Faster
  • Download torrent
  • Direct Download
  • Rate this torrent +  |  -
Transformers [2007] DVDRip N!CK [Re Rls]

Anonymous and Free Direct Download


Torrent info

Name:Transformers [2007] DVDRip N!CK [Re Rls]

Total Size: 0.25 KB

Magnet: Magnet Link

Seeds: 2

Leechers: 3

Stream: Watch Online @ Movie4u

Last Updated: 2010-08-16 20:41:46 (Update Now)

Torrent added: 2009-08-29 14:48:55



VPN For Torrents

Torrent Files List


Read Info.txt (Size: 0.25 KB) (Files: 1)

 Read Info.txt

0.25 KB
 

Announce URL: http://tracker.openbittorrent.com:80/announce

Torrent description

General
Complete name : C:\Transformers [2007] DVDRip - N!CK\Transformers [2007] DVDRip - N!CK.avi
Format : AVI
Format/Info : Audio Video Interleave
File size : 1.37 GiB
Duration : 2h 23mn
Overal bit rate : 1364 Kbps

Video
Format : MPEG-4 Visual
Format profile : Streaming [email protected]
Format settings, BVOP : Yes
Format settings, QPel : No
Format settings, GMC : No warppoints
Format settings, Matrix : Default
Codec ID : XVID
Codec ID/Hint : XviD
Duration : 2h 23mn
Bit rate : 1240 Kbps
Width : 720 pixels
Height : 304 pixels
Display aspect ratio : 2.35
Frame rate : 23.976 fps
Resolution : 8 bits
Colorimetry : 4:2:0
Scan type : Progressive
Bits/(Pixel*Frame) : 0.236
Stream size : 1.24 GiB
Writing library : XviD 50

Audio
Format : MPEG Audio
Format version : Version 1
Format profile : Layer 3
Codec ID : 55
Codec ID/Hint : MP3
Bit rate mode : Constant
Bit rate : 112 Kbps
Channel(s) : 2 channels
Sampling rate : 48.0 KHz
Resolution : 16 bits
Stream size : 115 MiB

related torrents

Torrent name

health leech seeds Size
 


comments (0)

Main Menu