Sci-Fi

Ticks (aka Infested) 1993 DvdRip [

  • Download 5x Faster
  • Download torrent
  • Direct Download
  • Rate this torrent +  |  -
Ticks (aka Infested) 1993 DvdRip [

Free and Direct Download with Usenet.nl 300GB+ free


Torrent info

Name:Ticks (aka Infested) 1993 DvdRip [

Total Size: 699.87 MB

Magnet: Magnet Link

Seeds: 0

Leechers: 0

Stream: Watch Online @ Movie4u

Last Updated: 2010-10-06 21:08:12 (Update Now)

Torrent added: 2009-08-29 14:45:35





Torrent Files List


Ticks.nfo (Size: 699.87 MB) (Files: 51)

 Ticks.nfo

2.52 KB

 Ticks.part01.rar

14.31 MB

 Ticks.part02.rar

14.31 MB

 Ticks.part03.rar

14.31 MB

 Ticks.part04.rar

14.31 MB

 Ticks.part05.rar

14.31 MB

 Ticks.part06.rar

14.31 MB

 Ticks.part07.rar

14.31 MB

 Ticks.part08.rar

14.31 MB

 Ticks.part09.rar

14.31 MB

 Ticks.part10.rar

14.31 MB

 Ticks.part11.rar

14.31 MB

 Ticks.part12.rar

14.31 MB

 Ticks.part13.rar

14.31 MB

 Ticks.part14.rar

14.31 MB

 Ticks.part15.rar

14.31 MB

 Ticks.part16.rar

14.31 MB

 Ticks.part17.rar

14.31 MB

 Ticks.part18.rar

14.31 MB

 Ticks.part19.rar

14.31 MB

 Ticks.part20.rar

14.31 MB

 Ticks.part21.rar

14.31 MB

 Ticks.part22.rar

14.31 MB

 Ticks.part23.rar

14.31 MB

 Ticks.part24.rar

14.31 MB

 Ticks.part25.rar

14.31 MB

 Ticks.part26.rar

14.31 MB

 Ticks.part27.rar

14.31 MB

 Ticks.part28.rar

14.31 MB

 Ticks.part29.rar

14.31 MB

 Ticks.part30.rar

14.31 MB

 Ticks.part31.rar

14.31 MB

 Ticks.part32.rar

14.31 MB

 Ticks.part33.rar

14.31 MB

 Ticks.part34.rar

14.31 MB

 Ticks.part35.rar

14.31 MB

 Ticks.part36.rar

14.31 MB

 Ticks.part37.rar

14.31 MB

 Ticks.part38.rar

14.31 MB

 Ticks.part39.rar

14.31 MB

 Ticks.part40.rar

14.31 MB

 Ticks.part41.rar

14.31 MB

 Ticks.part42.rar

14.31 MB

 Ticks.part43.rar

14.31 MB

 Ticks.part44.rar

14.31 MB

 Ticks.part45.rar

14.31 MB

 Ticks.part46.rar

14.31 MB

 Ticks.part47.rar

14.31 MB

 Ticks.part48.rar

14.31 MB

 Ticks.part49.rar

13.22 MB

 Ticks.sfv

4.03 KB
 

Announce URL: http://tracker.ilovetorrents.com/announce.php

Torrent description

General
Complete name : C:\Torrent Creation\Ticks\Ticks.avi
Format : AVI
Format/Info : Audio Video Interleave
File size : 700 MiB
Duration : 1h 21mn
Overal bit rate : 1197 Kbps
Movie name : Ticks (1993)
Director : INFECT
Subject : Ticks (1993)
Writing application : Nandub v1.0rc2
Writing library : Nandub build 1852/release
Copyright : Ticks.1993.PROPER.DVDrip.Xvid-INFECT
Comment : A rip of the cheesy horror movie starring Seth Green. Goes by the name Infested in some parts. This is from the R2 DVD, and has a decent resolution and using a modern codec. There is an old, old rip of this by Haven, but its no where to be found :-(

Video
Format : MPEG-4 Visual
Format profile : Streaming [email protected]
Format settings, BVOP : Yes
Format settings, QPel : No
Format settings, GMC : No warppoints
Format settings, Matrix : Default
Muxing mode : Packet Bitstream
Codec ID : XVID
Codec ID/Hint : XviD
Duration : 1h 21mn
Bit rate : 1060 Kbps
Width : 544 pixels
Height : 400 pixels
Display aspect ratio : 4/3
Frame rate : 25.000 fps
Resolution : 8 bits
Colorimetry : 4:2:0
Scan type : Progressive
Bits/(Pixel*Frame) : 0.195
Stream size : 620 MiB
Writing library : XviD 1.0.2 (UTC 2004-08-29)

Audio
Format : MPEG Audio
Format version : Version 1
Format profile : Layer 3
Codec ID : 55
Codec ID/Hint : MP3
Duration : 1h 21mn
Bit rate mode : Variable
Bit rate : 124 Kbps
Nominal bit rate : 128 Kbps
Channel(s) : 2 channels
Sampling rate : 48.0 KHz
Resolution : 16 bits
Stream size : 72.3 MiB
Writing library : LAME3.90.
Encoding settings : ABR

Link: http://www.imdb.com/title/tt0108339/

related torrents

Torrent name

health leech seeds Size
 

comments (0)

Main Menu